<?xml version="1.0" standalone="no"?>
<!DOCTYPE svg PUBLIC "-//W3C//DTD SVG 1.1//EN" "http://www.w3.org/Graphics/SVG/1.1/DTD/svg11.dtd" >
<svg xmlns="http://www.w3.org/2000/svg">
<metadata>Generated by IcoMoon</metadata>
<defs>
<font id="icomoon" horiz-adv-x="1024">
<font-face units-per-em="1024" ascent="960" descent="-64" />
<missing-glyph horiz-adv-x="1024" />
<glyph unicode="&#x20;" horiz-adv-x="512" d="" />
<glyph unicode="&#xe900;" glyph-name="add-circle-1" d="M512 874.667c-235.264 0-426.667-191.403-426.667-426.667 0-235.307 191.403-426.667 426.667-426.667s426.667 191.36 426.667 426.667c0 235.264-191.403 426.667-426.667 426.667zM512 106.667c-188.203 0-341.333 153.131-341.333 341.333s153.131 341.333 341.333 341.333 341.333-153.131 341.333-341.333-153.131-341.333-341.333-341.333zM554.667 661.333h-85.333v-170.667h-170.667v-85.333h170.667v-170.667h85.333v170.667h170.667v85.333h-170.667z" />
<glyph unicode="&#xe901;" glyph-name="airplane" d="M639.947 874.674h-255.979v-85.326h255.979zM968.41 604.232c-18.9 35.24-55.462 57.126-95.395 57.126h-233.069c0 70.565-57.425 127.989-127.989 127.989-69.2 0-125.387-55.291-127.392-127.989h-233.709c-39.933 0-76.495-21.886-95.395-57.126s-16.852-77.818 5.376-111.137c16.895-25.299 42.236-43.73 73.253-52.518l278.291-65.616 9.77-97.571h-38.183c-70.565 0-127.989-57.425-127.989-127.989v-42.663c0-23.593 19.113-42.663 42.663-42.663h426.631c23.55 0 42.663 19.070 42.663 42.663v42.663c0 70.565-57.425 127.989-127.989 127.989h-38.226l9.727 97.571 280.254 66.085c29.139 8.277 54.481 26.75 71.418 52.092 22.142 33.277 24.19 75.855 5.29 111.095zM155.55 523.13c-9.685 2.73-18.132 8.917-23.763 17.321-4.693 7.039-5.12 15.999-1.152 23.465 4.010 7.466 11.775 12.116 20.222 12.116h241.431l11.135-111.308-247.873 58.406zM639.947 192.064c23.507 0 42.663-19.156 42.663-42.663h-341.305c0 23.507 19.156 42.663 42.663 42.663h255.979zM511.957 277.39h-4.096l-38.567 383.968c0 23.507 19.156 42.663 42.663 42.663s42.663-19.156 42.876-38.397l-38.823-388.234h-4.053zM892.086 540.494c-5.632-8.447-14.079-14.633-21.886-16.895l-249.835-58.875 11.050 111.308h241.601c8.447 0 16.169-4.65 20.18-12.116 4.010-7.423 3.584-16.425-1.109-23.422z" />
<glyph unicode="&#xe902;" glyph-name="alien" d="M913.664 728.917c33.323 33.323 33.323 87.339 0 120.661s-87.339 33.323-120.661 0c-22.272-22.272-29.355-53.76-21.803-82.133l-44.203-44.203c-61.397 41.643-135.381 66.005-214.997 66.005s-153.6-24.363-214.997-66.005l-44.203 44.203c7.509 28.373 0.512 59.861-21.803 82.133-33.323 33.323-87.339 33.323-120.661 0s-33.323-87.339 0-120.661c22.272-22.272 53.717-29.312 82.133-21.803l39.723-39.765c-64.384-68.693-104.192-160.725-104.192-262.101v-277.333c0-82.347 66.987-149.333 149.333-149.333 53.376 0 96.725 24.491 122.667 66.219 24.021-52.907 70.912-66.219 112-66.219 40.704 0 87.168 13.013 111.36 64.555 4.907-6.912 10.752-13.824 17.707-20.779 28.203-28.203 65.707-43.733 105.6-43.733 82.347 0 149.333 66.987 149.333 149.333v277.333c0 101.376-39.808 193.408-104.192 262.144l39.723 39.765c28.416-7.595 59.861-0.555 82.133 21.717zM810.667 127.915c0-35.285-28.715-64-64-64-17.067 0-33.152 6.656-45.269 18.731-15.019 15.019-17.92 25.856-18.603 48.853-0.981 33.877-28.331 60.416-63.915 60.416-34.859 0-63.701-28.373-64.256-63.275-0.896-60.245-17.493-64.725-42.667-64.725-25.344 0-41.984 4.608-42.667 66.517-0.384 33.92-28.331 61.483-64 61.483-33.749 0-61.568-25.344-64.768-59.051-4.224-45.099-26.069-68.949-63.275-68.949-35.285 0-64 28.715-64 64v277.333c0 164.693 133.973 298.667 298.667 298.667s298.667-133.973 298.667-298.667v-277.333zM512 618.581c-94.123 0-170.667-76.544-170.667-170.667s76.544-170.667 170.667-170.667 170.667 76.544 170.667 170.667c0 94.123-76.544 170.667-170.667 170.667zM512 362.581c-47.061 0-85.333 38.272-85.333 85.333s38.272 85.333 85.333 85.333 85.333-38.272 85.333-85.333c0-47.019-38.272-85.333-85.333-85.333z" />
<glyph unicode="&#xe903;" glyph-name="alien-head" d="M512 831.915c-191.403 0-341.333-152.917-341.333-348.075 0-330.965 312.747-454.656 326.059-459.733 4.907-1.877 10.069-2.816 15.275-2.816s10.368 0.939 15.275 2.816c13.312 5.077 326.059 128.768 326.059 459.733 0 195.157-149.931 348.075-341.333 348.075zM512.171 110.464c-57.131 27.093-256.171 138.411-256.171 373.376 0 7.808 0.469 15.445 1.109 23.083 3.115-56.149 29.824-183.253 209.621-183.253 0 0 41.259 207.403-206.208 209.365 21.888 123.008 124.416 213.547 251.477 213.547s229.632-90.539 251.52-213.547c-247.467-1.963-206.208-209.365-206.208-209.365 179.755 0 206.507 127.104 209.621 183.211 0.597-7.595 1.067-15.275 1.067-23.040 0-236.715-197.717-346.283-255.829-373.376z" />
<glyph unicode="&#xe904;" glyph-name="android" d="M810.667 533.333h-597.333c-23.552 0-42.667-19.115-42.667-42.667v-298.667h85.333v256h42.667v-256c0-23.552 19.115-42.667 42.667-42.667h42.667v-128h85.333v128h85.333v-128h85.333v128h42.667c23.552 0 42.667 19.115 42.667 42.667v256h42.667v-256h85.333v298.667c0 23.552-19.115 42.667-42.667 42.667zM640 234.667h-256v213.333h256v-213.333zM298.667 618.667c0-23.552 19.115-42.667 42.667-42.667h341.333c23.552 0 42.667 19.115 42.667 42.667 0 43.435-13.184 83.712-35.541 117.461l65.707 65.749-60.331 60.331-65.707-65.707c-33.749 22.272-74.027 35.499-117.461 35.499s-83.712-13.227-117.461-35.541l-65.707 65.707-60.331-60.331 65.707-65.749c-22.357-33.707-35.541-73.984-35.541-117.419zM512 746.667c55.637 0 103.083-35.669 120.704-85.333h-241.408c17.621 49.664 65.067 85.333 120.704 85.333z" />
<glyph unicode="&#xe905;" glyph-name="atomic-bomb" d="M885.504 63.36l-7.339 0.64c-2.475 0-6.571-0.256-12.117-0.683-7.637-0.555-19.243-1.451-33.323-1.451-116.096 0-178.347 56.917-190.208 172.757h168.149v85.333h-170.667v85.333h143.488c112.811 0.043 197.845 80.085 197.845 186.24 0 109.056-88.747 197.803-197.845 197.803-36.437 0-69.12-7.168-96.896-20.992-33.323 63.531-99.925 106.325-174.592 106.325s-141.269-42.795-174.592-106.325c-27.819 13.824-60.459 20.992-96.896 20.992-109.099 0-197.845-88.747-197.845-197.803 0-106.155 85.035-186.197 197.845-186.197h143.488v-85.333h-170.667v-85.333h168.192c-11.861-115.84-74.155-172.757-190.208-172.757-14.123 0-25.728 0.896-33.323 1.451-5.589 0.384-9.685 0.64-12.16 0.64l-7.339-0.64c-33.024-5.76-55.808-35.285-52.907-68.736s30.336-58.624 63.915-58.624h724.992c33.579 0 61.056 25.216 63.915 58.667 2.901 33.408-19.883 62.933-52.907 68.693zM426.667 490.667h-186.155c-55.893 0-112.512 34.645-112.512 100.864 0 61.995 50.475 112.469 112.512 112.469 38.485 0 67.371-11.179 85.76-33.152 10.837-12.971 28.245-18.304 44.459-13.653s28.203 18.432 30.507 35.115c7.765 55.296 55.381 97.024 110.763 97.024s102.997-41.728 110.763-97.024c2.347-16.683 14.293-30.464 30.507-35.115 16.171-4.608 33.664 0.683 44.459 13.653 18.432 21.973 47.275 33.152 85.76 33.152 62.037 0 112.512-50.475 112.512-112.469 0-66.219-56.619-100.864-112.512-100.864h-186.155c-23.552 0-42.667-19.115-42.667-42.667v-128h-85.333v128c0 23.552-19.115 42.667-42.667 42.667zM356.907 21.333c63.872 42.88 102.187 115.541 110.635 213.333h88.875c7.851-93.909 42.496-163.755 103.339-208 2.517-1.835 5.077-3.627 7.637-5.333h-310.485z" />
<glyph unicode="&#xe906;" glyph-name="at-sign" d="M512 874.667c-235.264 0-426.667-191.403-426.667-426.667 0-235.307 191.403-426.667 426.667-426.667 86.997 0 170.368 25.685 241.195 74.283l-48.299 70.315c-56.533-38.784-123.221-59.264-192.896-59.264-188.203 0-341.333 153.131-341.333 341.333s153.131 341.333 341.333 341.333 341.333-153.131 341.333-341.333v-33.408c0-59.221-25.515-94.592-68.267-94.592l-0.085-0.768c-2.603 0.512-5.291 0.768-8.064 0.768h-8.917c-24.021 0-59.733 34.901-59.733 58.411v69.589c0 108.203-88.021 196.267-196.267 196.267s-196.267-88.064-196.267-196.267c0-108.203 88.021-196.267 196.267-196.267 52.651 0 100.267 21.077 135.552 54.955 27.691-40.875 74.752-72.021 120.448-72.021l0.085 0.768c2.645-0.512 5.419-0.768 8.277-0.768h8.704c91.861 0 153.6 72.277 153.6 179.925v33.408c0 235.264-191.403 426.667-426.667 426.667zM512 337.067c-61.184 0-110.933 49.749-110.933 110.933 0 61.141 49.749 110.933 110.933 110.933s110.933-49.792 110.933-110.933c0-61.184-49.749-110.933-110.933-110.933z" />
<glyph unicode="&#xe907;" glyph-name="baby" d="M852.537 618.695c0 197.786-143.519 341.305-341.305 341.305s-341.305-143.519-341.262-339.001c-0.384-7.423-9.215-184.305 43.858-396.639 54.609-218.222 126.88-288.275 297.405-288.275s242.796 70.053 297.362 288.275c53.116 212.334 44.284 389.216 43.943 394.335zM714.223 202.26l-139.039 69.498 169.842 63.696c-9.258-51.964-19.198-93.262-30.803-133.194zM255.253 618.695c0 148.34 107.639 255.979 255.979 255.979s255.979-107.639 256.021-258.24c0.043-1.109 3.584-76.282-8.362-184.603l-287.933-107.938-206.959 103.458c-12.5 110.924-8.831 188.656-8.746 191.344zM511.232 21.412c-112.759 0-163.698 20.222-214.595 223.683-6.783 27.048-12.372 53.5-17.151 79.14l405.769-202.863c-40.829-88.654-90.446-99.96-174.023-99.96zM511.232 405.38c117.622 0 213.316 95.693 213.316 213.316s-95.693 213.316-213.316 213.316-213.316-95.693-213.316-213.316 95.736-213.316 213.316-213.316zM511.232 746.684c70.565 0 127.989-57.425 127.989-127.989s-57.425-127.989-127.989-127.989-127.989 57.425-127.989 127.989 57.425 127.989 127.989 127.989zM553.895 576.032c0-23.562-19.101-42.663-42.663-42.663s-42.663 19.101-42.663 42.663c0 23.562 19.101 42.663 42.663 42.663s42.663-19.101 42.663-42.663z" />
<glyph unicode="&#xe908;" glyph-name="baby-hanging-toy" d="M1019.52 296.405l-123.52 246.997v160.597h85.333v85.333h-426.667v170.667h-85.333v-170.667h-426.667v-85.333h85.333v-91.392c-73.387-19.115-128-85.333-128-164.608 0-94.123 76.544-170.667 170.667-170.667s170.667 76.544 170.667 170.667c0 79.275-54.613 145.493-128 164.608v91.392h256v-291.883c-82.048-41.472-128-117.504-128-220.117 0-160.299 111.659-256 298.667-256 17.237 0 32.811 10.368 39.424 26.325s2.944 34.304-9.259 46.507c-0.725 0.725-72.832 74.112-72.832 183.168 0 107.776 72.235 182.528 72.832 183.168 12.203 12.203 15.872 30.549 9.259 46.507-6.613 15.915-22.187 26.325-39.424 26.325-30.592 0-58.923-2.816-85.333-7.808v263.808h256v-160.597l-123.52-246.997c-6.613-13.227-5.888-28.928 1.877-41.557 7.808-12.501 21.504-20.181 36.309-20.181h256c14.805 0 28.501 7.68 36.309 20.224 7.765 12.587 8.448 28.288 1.877 41.515zM256 448c0-47.061-38.272-85.333-85.333-85.333s-85.333 38.272-85.333 85.333c0 47.104 38.272 85.333 85.333 85.333s85.333-38.229 85.333-85.333zM552.107 31.232c-67.968 17.408-125.44 61.483-125.44 160.768s57.472 143.36 125.44 160.768c-21.205-41.216-40.107-96.085-40.107-160.768s18.901-119.552 40.107-160.768zM794.368 320l58.965 117.931 58.965-117.931h-117.931z" />
<glyph unicode="&#xe909;" glyph-name="baby-trolley" d="M725.291 746.667c-18.816 0-35.456-12.373-40.875-30.421l-42.069-140.245h-173.056v256c0 23.552-19.115 42.667-42.667 42.667h-42.667c-141.184 0-256-114.816-256-256 0-13.44-0.085-73.045 0.213-86.485 0.085-4.181 0.597-8.32 1.963-12.373l85.333-256c5.845-17.408 22.101-29.141 40.491-29.141h341.333c18.816 0 35.456 12.373 40.875 30.421l118.869 396.245h138.923v85.333h-170.667zM213.291 618.667c0 20.139 4.139 39.168 10.581 57.088l99.755-99.755h-110.336v42.667zM383.957 636.331l-110.933 110.976c29.909 25.813 68.395 42.027 110.933 42.027v-153.003zM565.547 320h-278.827l-56.875 170.667h386.944l-51.243-170.667zM383.957 106.667c0-47.128-38.205-85.333-85.333-85.333s-85.333 38.205-85.333 85.333c0 47.128 38.205 85.333 85.333 85.333s85.333-38.205 85.333-85.333zM639.957 106.667c0-47.128-38.205-85.333-85.333-85.333s-85.333 38.205-85.333 85.333c0 47.128 38.205 85.333 85.333 85.333s85.333-38.205 85.333-85.333z" />
<glyph unicode="&#xe90a;" glyph-name="backpack" d="M384.027 362.649h255.989v-85.33h-255.989v85.33zM810.676 405.314h-42.665v85.33c23.551 0 42.665 19.114 42.665 42.665v213.324c0 70.568-57.427 127.995-127.995 127.995h-341.319c-70.568 0-127.995-57.427-127.995-127.995v-213.324c0-23.551 19.114-42.665 42.665-42.665v-85.33h-42.665c-70.568 0-127.995-57.427-127.995-127.995v-213.324c0-23.551 19.114-42.665 42.665-42.665h767.968c23.551 0 42.665 19.114 42.665 42.665v213.324c0 70.568-57.427 127.995-127.995 127.995zM810.676 319.984c23.508 0 42.665-19.114 42.665-42.665h-85.33v42.665h42.665zM298.697 746.633c0 23.551 19.157 42.665 42.665 42.665h341.319c23.508 0 42.665-19.114 42.665-42.665v-170.66h-85.33v85.33h-85.33v-85.33h-85.33v85.33h-85.33v-85.33h-85.33v170.66zM213.367 319.984h42.665v-42.665h-85.33c0 23.551 19.157 42.665 42.665 42.665zM170.702 191.989h85.33v-85.33h-85.33v85.33zM341.362 490.644h42.665v-42.665h85.33v42.665h85.33v-42.665h85.33v42.665h42.665v-383.984h-341.319v383.984zM768.011 106.66v85.33h85.33v-85.33h-85.33z" />
<glyph unicode="&#xe90b;" glyph-name="banking-debit-machine" d="M554.667 734.805v182.528c0 13.696-6.571 26.581-17.749 34.603-11.136 8.064-25.429 10.155-38.4 5.845l-111.232-37.077-69.547 34.816c-11.989 5.973-26.155 5.973-38.187 0l-69.504-34.816-111.232 37.077c-13.056 4.309-27.307 2.219-38.4-5.888-11.179-8.021-17.749-20.864-17.749-34.56v-182.528c-25.387-14.848-42.667-42.069-42.667-73.472v-640c0-47.061 38.272-85.333 85.333-85.333h426.667c47.061 0 85.333 38.272 85.333 85.333v640c0 31.403-17.28 58.624-42.667 73.472zM199.851 834.176c10.752-3.584 22.443-2.731 32.555 2.304l66.261 33.109 66.261-33.067c10.112-5.077 21.803-5.931 32.555-2.347l71.851 23.936v-111.445h-341.333v111.445l71.851-23.936zM511.872 21.333h-426.539v640h426.667l-0.128-640zM128 618.667h341.333v-170.667h-341.333v170.667zM213.333 362.667c0-23.564-19.103-42.667-42.667-42.667s-42.667 19.103-42.667 42.667c0 23.564 19.103 42.667 42.667 42.667s42.667-19.103 42.667-42.667zM469.333 362.667c0-23.564-19.103-42.667-42.667-42.667s-42.667 19.103-42.667 42.667c0 23.564 19.103 42.667 42.667 42.667s42.667-19.103 42.667-42.667zM341.333 362.667c0-23.564-19.103-42.667-42.667-42.667s-42.667 19.103-42.667 42.667c0 23.564 19.103 42.667 42.667 42.667s42.667-19.103 42.667-42.667zM213.333 234.667c0-23.564-19.103-42.667-42.667-42.667s-42.667 19.103-42.667 42.667c0 23.564 19.103 42.667 42.667 42.667s42.667-19.103 42.667-42.667zM469.333 234.667c0-23.564-19.103-42.667-42.667-42.667s-42.667 19.103-42.667 42.667c0 23.564 19.103 42.667 42.667 42.667s42.667-19.103 42.667-42.667zM341.333 234.667c0-23.564-19.103-42.667-42.667-42.667s-42.667 19.103-42.667 42.667c0 23.564 19.103 42.667 42.667 42.667s42.667-19.103 42.667-42.667zM213.333 106.667c0-23.564-19.103-42.667-42.667-42.667s-42.667 19.103-42.667 42.667c0 23.564 19.103 42.667 42.667 42.667s42.667-19.103 42.667-42.667zM469.333 106.667c0-23.564-19.103-42.667-42.667-42.667s-42.667 19.103-42.667 42.667c0 23.564 19.103 42.667 42.667 42.667s42.667-19.103 42.667-42.667zM341.333 106.667c0-23.564-19.103-42.667-42.667-42.667s-42.667 19.103-42.667 42.667c0 23.564 19.103 42.667 42.667 42.667s42.667-19.103 42.667-42.667zM981.333 618.667h-298.667c-23.552 0-42.667-19.115-42.667-42.667v-426.667c0-23.552 19.115-42.667 42.667-42.667h298.667c23.552 0 42.667 19.115 42.667 42.667v426.667c0 23.552-19.115 42.667-42.667 42.667zM725.333 533.333h42.667v-341.333h-42.667v341.333zM938.667 192h-85.333v341.333h85.333v-341.333z" />
<glyph unicode="&#xe90c;" glyph-name="banking-donation-2" d="M281.003 490.667h120.661l-85.333 85.333 281.003 280.96 153.003-152.96-213.333-213.333h120.661l183.168 183.125c16.683 16.683 16.683 43.691 0 60.331l-213.333 213.333c-16.683 16.683-43.648 16.683-60.331 0l-341.333-341.333c-16.683-16.64-16.683-43.648 0-60.331l55.168-55.125zM853.333 448h-682.667c-23.552 0-42.667-19.115-42.667-42.667v-426.667c0-23.552 19.115-42.667 42.667-42.667h682.667c23.552 0 42.667 19.115 42.667 42.667v426.667c0 23.552-19.115 42.667-42.667 42.667zM810.667 21.333h-597.333v341.333h597.333v-341.333zM469.333 64h85.333v85.333h85.333v85.333h-85.333v85.333h-85.333v-85.333h-85.333v-85.333h85.333zM597.333 640c0-35.346-28.654-64-64-64s-64 28.654-64 64c0 35.346 28.654 64 64 64s64-28.654 64-64z" />
<glyph unicode="&#xe90d;" glyph-name="banking-spendings-1" d="M640 832v-44.8c-48.64-9.899-85.333-52.992-85.333-104.533 0-58.837 47.872-106.667 106.667-106.667h42.667c11.776 0 21.333-9.6 21.333-21.333 0-11.776-9.557-21.333-21.333-21.333h-64v-128h85.333v44.8c48.64 9.941 85.333 53.035 85.333 104.533 0 58.795-47.872 106.667-106.667 106.667h-42.667c-11.776 0-21.333 9.557-21.333 21.333 0 11.733 9.557 21.333 21.333 21.333h149.333v85.333h-85.333v42.667h-85.333zM810.667 192c0-23.552-19.157-42.667-42.667-42.667h-213.333v-85.333h170.667c0-23.552-19.157-42.667-42.667-42.667h-323.669l-102.997 102.997v220.672l102.997 102.997h153.003v-42.667c0-23.552-19.157-42.667-42.667-42.667h-85.333v-85.333h85.333c70.571 0 128 57.429 128 128v85.333c0 23.552-19.115 42.667-42.667 42.667h-213.333c-11.307 0-22.187-4.48-30.165-12.501l-78.208-78.251c-5.973 3.157-12.416 5.419-19.627 5.419h-170.667c-23.552 0-42.667-19.115-42.667-42.667v-341.333c0-23.552 19.115-42.667 42.667-42.667h170.667c7.211 0 13.653 2.219 19.627 5.376l78.208-78.251c7.979-7.979 18.859-12.459 30.165-12.459h341.333c70.571 0 128 57.429 128 128v7.851c49.579 17.664 85.333 64.597 85.333 120.149v42.667h-85.333v-42.667zM170.667 106.667h-85.333v256h85.333v-256zM682.667 960c-188.203 0-341.333-153.173-341.333-341.333 0-14.507 1.195-28.629 2.944-42.667h86.229c-2.347 13.867-3.84 28.075-3.84 42.667 0 141.141 114.816 256 256 256s256-114.859 256-256c0-141.184-114.816-256-256-256-14.549 0-28.757 1.493-42.667 3.84v-86.229c13.995-1.749 28.203-2.944 42.667-2.944 188.203 0 341.333 153.131 341.333 341.333 0 188.16-153.131 341.333-341.333 341.333z" />
<glyph unicode="&#xe90e;" glyph-name="banking-spendings-2" d="M938.667 832h-512c-47.061 0-85.333-38.229-85.333-85.333v-42.667h85.333v42.667h512v-85.333h-298.667v-85.333h298.667v-256h-512v42.667h-85.333v-42.667c0-47.061 38.272-85.333 85.333-85.333h272.299l-30.891-61.781c-7.253-14.549-21.845-23.552-38.144-23.552h-270.933l-102.997 102.997v220.672l102.997 102.997h153.003v-42.667c0-23.509-19.157-42.667-42.667-42.667h-85.333v-85.333h85.333c70.571 0 128 57.429 128 128v85.333c0 23.552-19.115 42.667-42.667 42.667h-213.333c-11.307 0-22.187-4.437-30.165-12.544l-78.208-78.165c-5.973 3.157-12.416 5.376-19.627 5.376h-170.667c-23.552 0-42.667-19.115-42.667-42.667v-341.333c0-23.552 19.115-42.667 42.667-42.667h170.667c7.211 0 13.653 2.219 19.627 5.376l78.208-78.251c7.979-7.936 18.859-12.459 30.165-12.459h288.597c48.811 0 92.672 27.093 114.475 70.784l49.963 99.883h144.299c47.061 0 85.333 38.272 85.333 85.333v426.667c0 47.104-38.272 85.333-85.333 85.333zM170.667 234.667h-85.333v256h85.333v-256z" />
<glyph unicode="&#xe90f;" glyph-name="banking-spendings-3" d="M768 448c0-47.128-38.205-85.333-85.333-85.333s-85.333 38.205-85.333 85.333c0 47.128 38.205 85.333 85.333 85.333s85.333-38.205 85.333-85.333zM981.333 704h-61.184l-115.584 192.64c-6.144 10.197-16.213 17.408-27.861 19.797-11.605 2.432-23.808-0.128-33.493-7.040l-287.531-205.397h146.816l152.704 109.056 65.451-109.056h-180.651v-85.333h298.667v-341.333h-512v85.333h-85.333v-128c0-23.552 19.115-42.667 42.667-42.667h293.632l-9.557-19.115c-7.253-14.549-21.845-23.552-38.101-23.552h-270.976l-102.997 102.997v220.672l102.997 102.997h153.003v-42.667c0-23.552-19.115-42.667-42.667-42.667h-85.333v-85.333h85.333c70.571 0 128 57.429 128 128v85.333c0 23.552-19.072 42.667-42.667 42.667h-213.333c-11.307 0-22.187-4.48-30.165-12.544l-78.208-78.208c-5.973 3.157-12.416 5.419-19.627 5.419h-170.667c-23.552 0-42.667-19.115-42.667-42.667v-341.333c0-23.552 19.115-42.667 42.667-42.667h170.667c7.211 0 13.653 2.219 19.627 5.376l78.208-78.251c7.979-7.979 18.859-12.459 30.165-12.459h288.64c48.811 0 92.672 27.093 114.475 70.784l28.587 57.216h208.299c23.595 0 42.667 19.115 42.667 42.667v426.667c0 23.552-19.072 42.667-42.667 42.667zM170.667 234.667h-85.333v256h85.333v-256z" />
<glyph unicode="&#xe910;" glyph-name="bank-note" d="M896 746.667h-768c-23.552 0-42.667-19.115-42.667-42.667v-512c0-23.552 19.115-42.667 42.667-42.667h768c23.552 0 42.667 19.115 42.667 42.667v512c0 23.552-19.115 42.667-42.667 42.667zM853.333 508.331l-153.003 153.003h153.003v-153.003zM170.667 387.669l153.003-153.003h-153.003v153.003zM444.331 234.667l-273.664 273.664v153.003h409.003l273.664-273.664v-153.003h-409.003zM512 618.667c-94.123 0-170.667-76.544-170.667-170.667s76.544-170.667 170.667-170.667 170.667 76.544 170.667 170.667-76.544 170.667-170.667 170.667zM512 362.667c-47.061 0-85.333 38.272-85.333 85.333 0 47.019 38.272 85.333 85.333 85.333s85.333-38.315 85.333-85.333c0-47.061-38.272-85.333-85.333-85.333z" />
<glyph unicode="&#xe911;" glyph-name="battery-charging-1" d="M768.043 746.667h-85.333v85.333c0 23.552-19.115 42.667-42.667 42.667h-256c-23.552 0-42.667-19.115-42.667-42.667v-85.333h-85.333c-23.552 0-42.667-19.115-42.667-42.667v-597.333c0-47.061 38.272-85.333 85.333-85.333h426.667c47.061 0 85.333 38.272 85.333 85.333v597.333c0 23.552-19.072 42.667-42.667 42.667zM298.709 106.667v554.667h85.333c23.552 0 42.667 19.115 42.667 42.667v85.333h170.667v-85.333c0-23.552 19.115-42.667 42.667-42.667h85.333l0.043-554.667h-426.709zM554.709 618.667l-213.333-256h128v-170.667l213.333 256h-128z" />
<glyph unicode="&#xe912;" glyph-name="battery-high" d="M768.043 746.667h-85.333v85.333c0 23.552-19.115 42.667-42.667 42.667h-256c-23.552 0-42.667-19.115-42.667-42.667v-85.333h-85.333c-23.552 0-42.667-19.115-42.667-42.667v-597.333c0-47.061 38.272-85.333 85.333-85.333h426.667c47.061 0 85.333 38.272 85.333 85.333v597.333c0 23.552-19.072 42.667-42.667 42.667zM384.043 661.333c23.552 0 42.667 19.115 42.667 42.667v85.333h170.667v-85.333c0-23.552 19.115-42.667 42.667-42.667h85.333v-128h-426.667v128h85.333zM298.709 106.667v341.333h426.667v-341.333h-426.667z" />
<glyph unicode="&#xe913;" glyph-name="battery-low" d="M768.043 746.667h-85.333v85.333c0 23.552-19.115 42.667-42.667 42.667h-256c-23.552 0-42.667-19.115-42.667-42.667v-85.333h-85.333c-23.552 0-42.667-19.115-42.667-42.667v-597.333c0-47.061 38.272-85.333 85.333-85.333h426.667c47.061 0 85.333 38.272 85.333 85.333v597.333c0 23.552-19.072 42.667-42.667 42.667zM384.043 661.333c23.552 0 42.667 19.115 42.667 42.667v85.333h170.667v-85.333c0-23.552 19.115-42.667 42.667-42.667h85.333l0.043-384h-426.709v384h85.333zM298.709 106.667v85.333h426.709v-85.333h-426.709z" />
<glyph unicode="&#xe914;" glyph-name="beaker-science" d="M913.536 140.032l-230.869 280.576v283.392h42.667c23.552 0 42.667 19.072 42.667 42.667v128c0 23.552-19.115 42.667-42.667 42.667h-426.667c-23.552 0-42.667-19.115-42.667-42.667v-128c0-23.595 19.115-42.667 42.667-42.667h42.667v-283.392l-232.875-283.221c-27.477-39.253-30.763-89.984-8.661-132.48 22.101-42.539 65.621-68.907 113.536-68.907h597.333c47.915 0 91.435 26.368 113.536 68.864s18.816 93.269-10.667 135.168zM341.333 832h341.333v-42.667h-341.333v42.667zM416.939 378.197c6.272 7.637 9.728 17.237 9.728 27.136v298.667h170.667v-42.667h-85.333v-85.333h85.333v-42.667h-128v-85.333h128v-42.667c0-9.899 3.456-19.499 9.728-27.136l83.072-100.864h-356.224l83.029 100.864zM848.512 44.288c-7.381-14.165-21.845-22.955-37.845-22.955h-597.333c-16 0-30.464 8.789-37.845 22.912-7.381 14.208-6.272 31.104 0.853 41.6l87.381 106.155h496.683l85.248-103.552c9.131-13.099 10.24-29.995 2.859-44.16z" />
<glyph unicode="&#xe915;" glyph-name="beauty-hand-soap" d="M703.928 381.635c105.852 0 191.992 86.098 191.992 191.992 0 96.764-136.784 279.498-191.992 353.308-31.913-42.665-191.992-249.547-191.992-353.308 0-105.894 86.14-191.992 191.992-191.992zM703.928 782.258c51.923-75.901 106.662-170.233 106.662-208.631 0-58.792-47.87-106.662-106.662-106.662s-106.662 47.87-106.662 106.662c0 38.356 54.739 132.73 106.662 208.631zM853.255 234.697h-323.656l12.501 12.501c12.97 12.97 16.213 32.809 8.021 49.235l-42.665 85.33c-9.472 18.943-31.487 28.073-51.667 21.375l-202.957-67.624c-6.229 15.829-21.503 27.178-39.55 27.178h-170.66c-23.551 0-42.665-19.114-42.665-42.665v-341.319c0-23.551 19.114-42.665 42.665-42.665h170.66c23.551 0 42.665 19.114 42.665 42.665h469.314c13.439 0 26.068 6.314 34.132 17.066l127.995 170.66c9.728 12.927 11.264 30.207 4.053 44.67-7.253 14.463-22.015 23.594-38.185 23.594zM85.287 21.372v255.989h85.33v-255.989h-85.33zM703.928 64.037h-447.981v182.563l191.736 63.869 12.373-24.703-63.571-63.571c-12.202-12.202-15.871-30.548-9.258-46.505s22.143-26.324 39.38-26.324h341.319l-63.997-85.33z" />
<glyph unicode="&#xe916;" glyph-name="beauty-lipstick" d="M639.931 320.027v426.649c0 15.359-8.277 29.524-21.631 37.118s-29.78 7.424-42.964-0.512l-213.324-127.995c-12.885-7.722-20.735-21.631-20.735-36.606v-298.654h-42.665v-298.654c0-47.059 38.27-85.33 85.33-85.33h213.324c47.059 0 85.33 38.27 85.33 85.33v298.654h-42.665zM383.941 234.697h213.324v-85.33h-213.324v85.33zM426.606 594.533l127.995 76.797v-351.303h-127.995v274.506zM383.941 21.372v42.665h213.367v-42.665h-213.367z" />
<glyph unicode="&#xe917;" glyph-name="bin" d="M213.333 106.667c0-47.061 38.272-85.333 85.333-85.333h426.667c47.061 0 85.333 38.272 85.333 85.333v512h-597.333v-512zM298.667 533.333h426.667l0.043-426.667h-426.709v426.667zM640 746.667v85.333h-256v-85.333h-256v-85.333h768v85.333zM384 448h85.333v-256h-85.333v256zM554.667 448h85.333v-256h-85.333v256z" />
<glyph unicode="&#xe918;" glyph-name="binoculars" d="M936.789 247.211l-154.667 502.656c-15.147 49.109-59.819 82.133-111.147 82.133-64.128 0-116.309-52.181-116.309-116.309v-54.357h-85.333v54.357c0 64.128-52.181 116.309-116.309 116.309-51.371 0-96-33.024-111.147-82.133l-154.667-502.656c-1.237-4.053-1.877-8.277-1.877-12.544v-21.333c0-105.899 86.144-192 192-192s192 86.101 192 192v192h85.333v-192c0-105.899 86.144-192 192-192s192 86.101 192 192v21.333c0 4.267-0.64 8.491-1.877 12.544zM277.333 106.667c-58.795 0-106.667 47.872-106.667 106.667s47.872 106.667 106.667 106.667 106.667-47.872 106.667-106.667-47.872-106.667-106.667-106.667zM384 372.821c-30.549 20.48-67.2 32.512-106.667 32.512-19.243 0-37.419-3.669-54.955-8.96l101.035 328.448c4.053 13.056 15.957 21.845 29.611 21.845 17.067 0 30.976-13.867 30.976-30.976v-342.869zM469.333 490.667v85.333h85.333v-85.333h-85.333zM640 661.333v54.357c0 17.109 13.909 30.976 30.976 30.976 13.653 0 25.557-8.789 29.611-21.888l101.035-328.448c-17.536 5.333-35.712 9.003-54.955 9.003-39.467 0-76.117-12.032-106.667-32.512v288.512zM746.667 106.667c-58.795 0-106.667 47.872-106.667 106.667s47.872 106.667 106.667 106.667 106.667-47.872 106.667-106.667-47.872-106.667-106.667-106.667z" />
<glyph unicode="&#xe919;" glyph-name="bitcoin-cloud" d="M725.333 616.491v44.843h-85.333v-42.667h-85.333v-341.333h85.333v-42.667h85.333v44.8c48.64 9.941 85.333 52.992 85.333 104.533 0 24.064-8.32 46.080-21.888 64 13.568 17.877 21.888 39.851 21.888 64 0 51.499-36.693 94.592-85.333 104.491zM725.333 512c0-11.776-9.557-21.333-21.333-21.333h-64v42.667h64c11.776 0 21.333-9.6 21.333-21.333zM704 362.667h-64v42.667h64c11.776 0 21.333-9.557 21.333-21.333 0-11.819-9.557-21.333-21.333-21.333zM682.667 789.333c-135.083 0-255.531-79.659-310.229-199.467-36.053 18.773-75.947 28.8-116.437 28.8-141.184 0-256-114.859-256-256 0-141.184 114.816-256 256-256h426.667c188.203 0 341.333 153.131 341.333 341.333 0 188.16-153.131 341.333-341.333 341.333zM682.667 192h-426.667c-94.123 0-170.667 76.544-170.667 170.667s76.544 170.667 170.667 170.667c50.944 0 88.149-22.656 110.336-41.728 11.179-9.557 26.453-12.672 40.491-8.32s24.832 15.659 28.544 29.867c29.525 112.341 131.243 190.848 247.296 190.848 141.184 0 256-114.859 256-256 0-141.227-114.816-256-256-256z" />
<glyph unicode="&#xe91a;" glyph-name="bitcoin-laptop" d="M991.701 275.968c-3.499 0.896-6.912 0.469-10.368 0.469v555.563c0 23.595-19.115 42.667-42.667 42.667h-853.333c-23.552 0-42.667-19.115-42.667-42.667v-555.52c-3.456 0-6.869 0.384-10.368-0.469-22.869-5.717-36.736-28.885-31.061-51.755l32.299-129.195c10.539-42.069 51.157-73.728 94.464-73.728h768c43.307 0 83.925 31.701 94.421 73.728l32.299 129.195c5.717 22.827-8.192 45.995-31.019 51.712zM128 789.333h768v-512.043h-256c-11.307 0-22.187-4.523-30.165-12.501l-30.165-30.165h-135.339l-30.165 30.165c-7.979 7.979-18.859 12.459-30.165 12.459h-256v512.085zM896 106.667h-768c-3.84 0-10.667 5.333-11.605 9.088l-19.029 76.203h269.013l30.165-30.165c7.936-8.021 18.816-12.544 30.123-12.544h170.667c11.307 0 22.187 4.48 30.165 12.501l30.165 30.165h269.013l-19.029-76.203c-0.981-3.712-7.808-9.045-11.648-9.045zM469.333 362.581v-42.667h85.333v44.8c48.64 9.941 85.333 52.992 85.333 104.533 0 24.107-8.32 46.123-21.888 64 13.568 17.877 21.888 39.893 21.888 64 0 51.499-36.693 94.549-85.333 104.491v44.843h-85.333v-42.667h-85.333v-341.333h85.333zM533.333 447.915h-64v42.667h64c11.776 0 21.333-9.557 21.333-21.333s-9.557-21.333-21.333-21.333zM554.667 597.248c0-11.776-9.557-21.333-21.333-21.333h-64v42.667h64c11.776 0 21.333-9.557 21.333-21.333z" />
<glyph unicode="&#xe91b;" glyph-name="bitcoin-network" d="M512 959.915c-282.325 0-512-229.717-512-512s229.675-511.915 512-511.915 512 229.632 512 511.957c0 282.283-229.675 511.957-512 511.957zM880.939 661.248h-102.912c-17.749 22.016-112.341 166.357-128.085 189.995 97.92-33.579 179.755-101.76 230.997-189.995zM256 447.915c0 141.141 114.816 256 256 256s256-114.859 256-256c0-141.184-114.816-256-256-256s-256 114.816-256 256zM532.523 873.515l63.445-95.147c-26.923 6.827-54.955 10.88-83.968 10.88s-57.045-4.053-83.968-10.88l63.445 95.147c6.869 0.341 13.568 1.067 20.523 1.067s13.653-0.725 20.523-1.067zM374.059 851.243c-15.744-23.637-110.336-167.979-128.085-189.995h-102.912c51.243 88.235 133.077 156.416 230.997 189.995zM105.003 575.915h90.795c-16.085-39.595-25.131-82.731-25.131-128s9.045-88.448 25.131-128h-90.795c-12.715 40.405-19.669 83.413-19.669 128s6.955 87.595 19.669 128zM143.104 234.581h102.912c17.749-22.059 112.299-166.357 128.043-189.952-97.92 33.579-179.755 101.717-230.955 189.952zM491.477 22.357l-63.445 95.104c26.923-6.827 54.955-10.837 83.968-10.837s57.045 4.011 83.968 10.837l-63.445-95.104c-6.827-0.384-13.568-1.024-20.523-1.024s-13.696 0.64-20.523 1.024zM649.941 44.629c15.744 23.637 110.336 167.936 128.043 189.952h102.912c-51.2-88.235-133.035-156.373-230.955-189.952zM918.997 319.915h-90.752c16.085 39.552 25.131 82.731 25.131 128s-9.045 88.405-25.131 128h90.795c12.715-40.448 19.669-83.413 19.669-128-0.043-44.587-6.997-87.595-19.712-128zM554.667 234.581v44.8c48.64 9.941 85.333 52.992 85.333 104.533 0 24.107-8.32 46.123-21.888 64 13.525 17.877 21.888 39.893 21.888 64 0 51.499-36.693 94.549-85.333 104.491v44.843h-85.333v-42.667h-85.333v-341.333h85.333v-42.667h85.333zM533.333 362.581h-64v42.667h64c11.776 0 21.333-9.557 21.333-21.333s-9.557-21.333-21.333-21.333zM554.667 511.915c0-11.776-9.557-21.333-21.333-21.333h-64v42.667h64c11.776 0 21.333-9.557 21.333-21.333z" />
<glyph unicode="&#xe91c;" glyph-name="bitcoin-windows" d="M896 874.667h-768c-47.061 0-85.333-38.272-85.333-85.333v-682.667c0-47.061 38.272-85.333 85.333-85.333h768c47.061 0 85.333 38.272 85.333 85.333v682.667c0 47.061-38.272 85.333-85.333 85.333zM896 704h-341.333v85.333h341.333v-85.333zM341.333 704v85.333h128v-85.333h-128zM256 789.333v-85.333h-128v85.333h128zM128 106.667v512h767.957l-0.085-512h-767.872zM554.667 531.157v44.843h-85.333v-42.667h-85.333v-341.333h85.333v-42.624h85.333v44.757c48.64 9.899 85.333 52.992 85.333 104.491 0 24.064-8.32 46.123-21.888 64 13.568 17.92 21.888 39.936 21.888 64.043 0 51.499-36.693 94.592-85.333 104.491zM554.667 426.667c0-11.819-9.557-21.333-21.333-21.333h-64v42.667h64c11.776 0 21.333-9.557 21.333-21.333zM533.333 277.333h-64v42.667h64c11.776 0 21.333-9.557 21.333-21.333 0-11.819-9.557-21.333-21.333-21.333z" />
<glyph unicode="&#xe91d;" glyph-name="box-2" d="M938.496 576.768c-0.085 4.992-1.109 9.813-2.901 14.464-0.469 1.195-1.067 2.261-1.664 3.413-0.811 1.621-1.365 3.413-2.432 4.992l-170.667 256c-7.936 11.904-21.248 19.029-35.499 19.029h-426.667c-14.251 0-27.563-7.125-35.499-18.987l-170.667-256c-1.067-1.579-1.621-3.371-2.432-5.035-0.555-1.152-1.195-2.219-1.664-3.413-1.792-4.651-2.816-9.472-2.901-14.464-0.043-0.256-0.171-0.469-0.171-0.768v-512c0-23.552 19.115-42.667 42.667-42.667h768c23.552 0 42.667 19.115 42.667 42.667v512c0 0.299-0.128 0.512-0.171 0.768zM816.256 618.667h-261.589v170.667h147.84l113.749-170.667zM321.493 789.333h147.84v-170.667h-261.589l113.749 170.667zM853.333 106.667h-682.667v426.667h682.667v-426.667z" />
<glyph unicode="&#xe91e;" glyph-name="box-add" d="M85.333 618.411h682.667v-255.744h85.333v298.411c0 0.299-0.128 0.512-0.171 0.811-0.085 4.949-1.109 9.771-2.901 14.464-0.469 1.195-1.067 2.261-1.664 3.413-0.811 1.621-1.365 3.413-2.432 4.992l-170.667 256c-7.936 11.861-21.248 18.987-35.499 18.987h-426.667c-14.251 0-27.563-7.125-35.499-18.987l-170.667-256c-1.067-1.579-1.621-3.371-2.432-4.992-0.555-1.195-1.195-2.219-1.664-3.413-1.792-4.693-2.816-9.515-2.901-14.464-0.043-0.299-0.171-0.512-0.171-0.811v-512c0-23.552 19.115-42.667 42.667-42.667h554.667v85.333h-512v426.667zM730.923 703.744h-261.589v170.667h147.84l113.749-170.667zM236.16 874.411h147.84v-170.667h-261.589l113.749 170.667zM1024 149.333h-128v128h-85.333v-128h-128v-85.333h128v-128h85.333v128h128z" />
<glyph unicode="&#xe91f;" glyph-name="box-check" d="M85.333 618.667h682.667v-298.667h85.333v341.333c0 0.299-0.128 0.512-0.171 0.768-0.085 4.992-1.109 9.813-2.901 14.464-0.469 1.195-1.067 2.261-1.621 3.413-0.853 1.621-1.365 3.413-2.475 4.992l-170.667 256c-7.936 11.904-21.205 19.029-35.499 19.029h-426.667c-14.251 0-27.563-7.125-35.499-18.987l-170.667-256c-1.024-1.579-1.621-3.371-2.432-5.035-0.555-1.152-1.195-2.219-1.664-3.413-1.792-4.651-2.816-9.472-2.901-14.464 0-0.256-0.171-0.469-0.171-0.768v-512c0-23.552 19.115-42.667 42.667-42.667h512v85.333h-469.333v426.667zM730.965 704h-261.632v170.667h147.84l113.792-170.667zM236.16 874.667h147.84v-170.667h-261.589l113.749 170.667zM951.168 265.088l-183.168-183.168-97.835 97.835-60.331-60.331 158.165-158.165 243.499 243.499z" />
<glyph unicode="&#xe920;" glyph-name="box-handle-1" d="M938.667 960h-597.333c-47.061 0-85.333-38.272-85.333-85.333v-384h85.333v384h128v-256c0-17.237 10.411-32.811 26.325-39.424 15.915-6.571 34.261-2.944 46.507 9.259l97.835 97.792 97.835-97.835c8.149-8.149 19.072-12.459 30.165-12.459 5.504 0 11.051 1.067 16.341 3.243 15.915 6.571 26.325 22.144 26.325 39.424v256h128l-0.128-512h-298.539v-85.333h298.667c47.061 0 85.333 38.272 85.333 85.333v512c0 47.061-38.272 85.333-85.333 85.333zM725.333 721.664l-55.168 55.125c-8.32 8.363-19.243 12.544-30.165 12.544s-21.845-4.181-30.165-12.501l-55.168-55.168v153.003h170.667v-153.003zM853.333 234.667h-323.669l12.501 12.459c12.971 13.013 16.213 32.853 8.021 49.28l-42.667 85.333c-9.515 18.987-31.445 28.117-51.669 21.376l-202.965-67.627c-6.229 15.829-21.504 27.179-39.552 27.179h-170.667c-23.552 0-42.667-19.115-42.667-42.667v-341.333c0-23.552 19.115-42.667 42.667-42.667h170.667c23.552 0 42.667 19.115 42.667 42.667h469.333c13.44 0 26.069 6.315 34.133 17.024l128 170.667c9.728 12.928 11.264 30.251 4.053 44.715-7.253 14.421-22.016 23.595-38.187 23.595zM85.333 21.333v256h85.333v-256h-85.333zM704 64h-448v182.571l191.744 63.915 12.373-24.747-63.573-63.616c-8.192-8.107-12.117-19.072-12.16-30.123h-0.384v-42.667h384l-64-85.333z" />
<glyph unicode="&#xe921;" glyph-name="box-subtract" d="M85.333 618.411h682.667v-384h85.333v426.667c0 0.299-0.128 0.512-0.171 0.811-0.085 4.949-1.109 9.771-2.901 14.464-0.469 1.195-1.067 2.261-1.621 3.413-0.853 1.621-1.365 3.413-2.475 4.992l-170.667 256c-7.936 11.861-21.205 18.987-35.499 18.987h-426.667c-14.251 0-27.563-7.125-35.499-18.987l-170.667-256c-1.024-1.579-1.621-3.371-2.432-4.992-0.555-1.195-1.195-2.219-1.664-3.413-1.792-4.693-2.816-9.515-2.901-14.464 0-0.299-0.171-0.512-0.171-0.811v-512c0-23.552 19.115-42.667 42.667-42.667h597.333v85.333h-554.667v426.667zM730.965 703.744h-261.632v170.667h147.84l113.792-170.667zM236.16 874.411h147.84v-170.667h-261.589l113.749 170.667zM725.333 149.333h256v-85.333h-256v85.333z" />
<glyph unicode="&#xe922;" glyph-name="building-6" d="M383.941 661.346h85.33v-85.33h-85.33v85.33zM554.601 661.346h85.33v-85.33h-85.33v85.33zM383.941 490.686h85.33v-85.33h-85.33v85.33zM554.601 490.686h85.33v-85.33h-85.33v85.33zM213.282 320.027h85.33v-85.33h-85.33v85.33zM383.941 320.027h85.33v-85.33h-85.33v85.33zM554.601 320.027h85.33v-85.33h-85.33v85.33zM725.26 320.027h85.33v-85.33h-85.33v85.33zM895.92 448.021h-127.995v341.319c0 23.551-19.114 42.665-42.665 42.665h-85.33v42.665c0 23.551-19.114 42.665-42.665 42.665h-170.66c-23.551 0-42.665-19.114-42.665-42.665v-42.665h-85.33c-23.551 0-42.665-19.114-42.665-42.665v-341.319h-127.995c-23.551 0-42.665-19.114-42.665-42.665v-341.319c0-23.551 19.114-42.665 42.665-42.665h767.968c23.551 0 42.665 19.114 42.665 42.665v341.319c0 23.551-19.114 42.665-42.665 42.665zM853.255 106.702h-255.989v85.33h-170.66v-85.33h-255.989v255.989h127.995c23.551 0 42.665 19.114 42.665 42.665v341.319h85.33c23.551 0 42.665 19.114 42.665 42.665v42.665h85.33v-42.665c0-23.551 19.114-42.665 42.665-42.665h85.33v-341.319c0-23.551 19.114-42.665 42.665-42.665h127.995v-255.989z" />
<glyph unicode="&#xe923;" glyph-name="building-10" d="M938.67 362.606h-170.66v213.324c0 126.587-92.455 231.713-213.324 252.149v89.17h-85.33v-89.17c-120.87-20.436-213.324-125.563-213.324-252.149v-213.324h-170.66c-23.551 0-42.665-19.114-42.665-42.665v-255.989c0-23.551 19.114-42.665 42.665-42.665h853.298c23.551 0 42.665 19.114 42.665 42.665v255.989c0 23.551-19.114 42.665-42.665 42.665zM341.362 575.931c0 94.076 76.541 170.66 170.66 170.66s170.66-76.583 170.66-170.66v-42.665h-341.319v42.665zM896.005 106.617h-767.968v170.66h170.66c23.551 0 42.665 19.114 42.665 42.665v127.995h341.319v-127.995c0-23.551 19.114-42.665 42.665-42.665h170.66v-170.66zM384.027 362.606h85.33v-85.33h-85.33v85.33zM554.686 362.606h85.33v-85.33h-85.33v85.33zM213.367 234.612h85.33v-85.33h-85.33v85.33zM384.027 234.612h85.33v-85.33h-85.33v85.33zM554.686 234.612h85.33v-85.33h-85.33v85.33zM725.346 234.612h85.33v-85.33h-85.33v85.33z" />
<glyph unicode="&#xe924;" glyph-name="building-barn" d="M938.628 106.66v298.654c0 16.17-9.13 30.932-23.594 38.185l-170.66 85.33c-11.989 6.016-26.154 6.016-38.185 0l-170.66-85.33c-14.421-7.253-23.551-22.015-23.551-38.185v-298.654h-85.33v533.311c0 82.343-66.984 149.327-149.327 149.327s-149.327-66.984-149.327-149.327v-533.311h-127.995v-85.33h1023.957v85.33h-85.33zM341.319 362.649h-127.995v127.995h127.995v-127.995zM277.322 703.968c35.284 0 63.997-28.713 63.997-63.997v-63.997h-127.995v63.997c0 35.284 28.713 63.997 63.997 63.997zM213.324 106.66v170.66h127.995v-170.66h-127.995zM810.633 106.66v127.995h-170.66v-127.995h-42.665v272.287l127.995 63.997 127.995-63.997v-272.287h-42.665z" />
<glyph unicode="&#xe925;" glyph-name="bus-2" d="M384.043 234.581c0-23.564-19.103-42.667-42.667-42.667s-42.667 19.103-42.667 42.667c0 23.564 19.103 42.667 42.667 42.667s42.667-19.103 42.667-42.667zM725.376 234.581c0-23.564-19.103-42.667-42.667-42.667s-42.667 19.103-42.667 42.667c0 23.564 19.103 42.667 42.667 42.667s42.667-19.103 42.667-42.667zM896.043 618.581h85.333v-170.667h-85.333v170.667zM42.709 618.581h85.333v-170.667h-85.333v170.667zM768.043 831.915h-512c-47.061 0-85.333-38.272-85.333-85.333v-682.667c0-47.104 38.229-85.333 85.333-85.333s85.333 38.229 85.333 85.333h341.333c0-47.104 38.229-85.333 85.333-85.333s85.333 38.229 85.333 85.333v682.667c0 47.061-38.272 85.333-85.333 85.333zM256.043 575.915h512v-170.667h-512v170.667zM768.043 149.248h-512v170.667h512v-170.667zM256.043 661.248v85.333h512v-85.333h-512z" />
<glyph unicode="&#xe926;" glyph-name="business-briefcase-cash" d="M853.333 704v42.667h-85.333v-42.667h-85.333v85.333c0 23.552-19.115 42.667-42.667 42.667h-256c-23.552 0-42.667-19.115-42.667-42.667v-85.333h-85.333v42.667h-85.333v-42.667c-47.061 0-85.333-38.272-85.333-85.333v-512c0-47.061 38.272-85.333 85.333-85.333h682.667c47.061 0 85.333 38.272 85.333 85.333v512c0 47.061-38.272 85.333-85.333 85.333zM426.667 746.667h170.667v-42.667h-170.667v42.667zM853.333 106.667h-682.667v512h682.667v-512zM554.667 576h-85.333v-44.843c-48.64-9.899-85.333-52.992-85.333-104.491 0-58.795 47.872-106.667 106.667-106.667h42.667c11.776 0 21.333-9.557 21.333-21.333s-9.557-21.333-21.333-21.333h-149.333v-85.333h85.333v-42.667h85.333v44.843c48.64 9.899 85.333 52.992 85.333 104.491 0 58.795-47.872 106.667-106.667 106.667h-42.667c-11.776 0-21.333 9.557-21.333 21.333s9.557 21.333 21.333 21.333h149.333v85.333h-85.333v42.667z" />
<glyph unicode="&#xe927;" glyph-name="business-whiteboard" d="M853.333 874.667h-682.667c-47.061 0-85.333-38.315-85.333-85.333v-426.667c0-47.061 38.272-85.333 85.333-85.333h238.293l-255.957-255.957h120.661l195.669 195.627v-195.627h85.333v195.627l195.669-195.627h120.661l-255.957 255.957h238.293c47.061 0 85.333 38.272 85.333 85.333v426.667c0 47.019-38.272 85.333-85.333 85.333zM853.333 789.333v-85.333h-682.667v85.333h682.667zM170.667 362.667v256h682.624l-0.085-256h-682.539z" />
<glyph unicode="&#xe928;" glyph-name="calendar-1" d="M896 832h-128v85.333h-85.333v-256h85.333v85.333h128v-640h-768v640h85.333v85.333h-85.333c-47.104 0-85.333-38.229-85.333-85.333v-640c0-47.104 38.229-85.333 85.333-85.333h768c47.104 0 85.333 38.229 85.333 85.333v640c0 47.104-38.229 85.333-85.333 85.333zM341.333 746.667h298.667v85.333h-298.667v85.333h-85.333v-256h85.333zM213.333 576h170.667v-170.667h-170.667v170.667zM426.667 576h170.667v-170.667h-170.667v170.667zM640 576h170.667v-170.667h-170.667v170.667zM213.333 362.667h170.667v-170.667h-170.667v170.667zM426.667 362.667h170.667v-170.667h-170.667v170.667z" />
<glyph unicode="&#xe929;" glyph-name="camera-1" d="M512 618.581c-117.632 0-213.333-95.701-213.333-213.333s95.701-213.333 213.333-213.333 213.333 95.701 213.333 213.333-95.701 213.333-213.333 213.333zM512 277.248c-70.571 0-128 57.429-128 128s57.429 128 128 128 128-57.429 128-128-57.429-128-128-128zM853.333 703.915h-147.84l-59.989 89.941c-15.872 23.851-42.411 38.059-70.997 38.059h-125.013c-28.587 0-55.125-14.208-70.997-38.059l-59.989-89.941h-147.84c-47.061 0-85.333-38.272-85.333-85.333v-469.333c0-47.061 38.272-85.333 85.333-85.333h682.667c47.061 0 85.333 38.272 85.333 85.333v469.333c0 47.061-38.272 85.333-85.333 85.333zM170.667 149.248v469.333h193.493l85.333 128h125.013l85.333-128h193.493l0.043-469.333h-682.709z" />
<glyph unicode="&#xe92a;" glyph-name="camera-live-view-off" d="M721.024 405.248h132.309v85.333h-132.309c-16.981 83.627-82.773 149.419-166.357 166.357v132.309h-85.333v-132.309c-83.584-16.939-149.376-82.731-166.357-166.357h-132.309v-85.333h132.309c16.981-83.541 82.773-149.376 166.357-166.357v-132.309h85.333v132.309c83.584 16.981 149.376 82.816 166.357 166.357zM512 319.915c-70.699 0-128 57.301-128 128 0 70.741 57.301 128 128 128s128-57.259 128-128c0-70.699-57.301-128-128-128zM853.333 106.581h-170.667v-85.333h170.667c47.061 0 85.333 38.315 85.333 85.333v170.667h-85.333v-170.667zM853.333 874.581h-170.667v-85.333h170.667v-170.667h85.333v170.667c0 47.061-38.272 85.333-85.333 85.333zM170.667 789.248h170.667v85.333h-170.667c-47.061 0-85.333-38.272-85.333-85.333v-170.667h85.333v170.667zM170.667 277.248h-85.333v-170.667c0-47.019 38.272-85.333 85.333-85.333h170.667v85.333h-170.667v170.667z" />
<glyph unicode="&#xe92b;" glyph-name="car-2" d="M554.667 661.248c-150.229 0-274.859-111.445-295.637-256h-3.029c-94.123 0-170.667-76.544-170.667-170.667v-85.333c0-23.595 19.115-42.667 42.667-42.667h93.227c17.664-49.579 64.597-85.333 120.107-85.333s102.443 35.755 120.149 85.333h143.744c17.664-49.579 64.597-85.333 120.107-85.333s102.443 35.755 120.149 85.333h50.517c23.552 0 42.667 19.072 42.667 42.667v128c0 211.712-172.245 384-384 384zM824.107 405.248h-226.773v167.253c100.395-14.464 184.619-78.848 226.773-167.253zM512 571.605v-166.357h-166.315c16.981 83.456 82.859 149.333 166.315 166.357zM341.333 106.581c-23.509 0-42.667 19.157-42.667 42.667s19.157 42.667 42.667 42.667 42.667-19.157 42.667-42.667c0-23.509-19.115-42.667-42.667-42.667zM725.333 106.581c-23.509 0-42.667 19.157-42.667 42.667s19.157 42.667 42.667 42.667 42.667-19.157 42.667-42.667c0-23.509-19.115-42.667-42.667-42.667zM853.333 191.915h-7.851c-17.707 49.536-64.597 85.333-120.149 85.333s-102.443-35.797-120.107-85.333h-143.744c-17.707 49.536-64.597 85.333-120.149 85.333s-102.443-35.797-120.107-85.333h-50.56v42.667c0 47.061 38.272 85.333 85.333 85.333h593.92c2.005-13.995 3.413-28.16 3.413-42.667v-85.333z" />
<glyph unicode="&#xe92c;" glyph-name="castle-1" d="M981.292 362.606h-263.669l-25.727 128.507c42.75 4.65 76.071 40.916 76.071 84.818v255.989h-85.33v-85.33h-127.995v85.33h-85.33v-85.33h-127.995v85.33h-85.33v-255.989c0-43.902 33.364-80.21 76.071-84.818l-25.684-128.507h-263.712v-85.33h42.665v-213.324c0-23.551 19.114-42.665 42.665-42.665h298.654c23.551 0 42.665 19.114 42.665 42.665v42.622c0 23.551 19.157 42.708 42.708 42.708 23.892 0 42.708-19.498 42.665-42.793l-0.043-42.452c-0.043-23.466 19.029-42.708 42.665-42.708h298.654c23.551 0 42.665 19.114 42.665 42.665v213.324h42.665v85.287zM417.007 560.315c-8.106 9.898-20.223 15.615-33.023 15.615h-42.665v85.33h341.319v-85.33h-42.665c-12.799 0-24.874-5.717-32.98-15.615-8.106-9.856-11.349-22.868-8.832-35.412l32.468-162.297h-237.259l32.468 162.297c2.517 12.543-0.725 25.556-8.832 35.412zM853.298 106.617h-213.282c0 70.568-57.427 127.995-127.995 127.995s-127.995-57.427-128.037-127.995h-213.324v170.66h682.638v-170.66z" />
<glyph unicode="&#xe92d;" glyph-name="cc-camera-1" d="M935.342 805.638c-6.613 15.957-22.186 26.367-39.422 26.367h-554.644c-117.627 0-213.324-95.697-213.324-213.324s95.697-213.324 213.324-213.324h85.33v-95.825l-213.324-60.968v114.129h-85.33v-298.654h85.33v95.825l267.722 76.455c18.303 5.248 30.932 22.015 30.932 41.044v127.995h170.66c23.551 0 42.665 19.114 42.665 42.665h85.33c23.551 0 42.665 19.114 42.665 42.665v127.995c0 18.346-11.69 33.663-27.946 39.721l100.774 100.774c12.202 12.159 15.871 30.548 9.258 46.462zM652.431 606.18c-8.021-7.978-12.501-18.858-12.501-30.164v-85.33h-298.654c-70.568 0-127.995 57.427-127.995 127.995 0 55.55 35.796 102.438 85.33 120.102v-120.102h85.33v127.995h42.665v-85.33h85.33v85.33h280.991l-140.495-140.495zM767.925 576.016v-42.665h-42.665v24.959l17.706 17.706h24.959z" />
<glyph unicode="&#xe92e;" glyph-name="chair-1" d="M896.005 405.271c0 196.301-193.485 469.314-383.984 469.314s-383.984-273.013-383.984-469.314c0-208.973 174.115-250.059 341.319-255.221v-43.433h-127.995v-85.33h341.319v85.33h-127.995v43.433c167.204 5.162 341.319 46.249 341.319 255.221zM213.367 405.271c0 151.631 160.164 383.984 298.654 383.984s298.654-232.353 298.654-383.984c0-86.311-23.082-170.66-298.654-170.66s-298.654 84.348-298.654 170.66zM640.016 319.941h85.33c0 75.432-112.422 127.995-213.324 127.995s-213.324-52.563-213.324-127.995l84.988-2.517c5.504 13.781 59.731 45.182 128.336 45.182s122.832-31.401 127.995-42.665z" />
<glyph unicode="&#xe92f;" glyph-name="chat-bubble-square-1" d="M256 21.333v170.667h-85.333c-47.061 0-85.333 38.272-85.333 85.333v512c0 47.061 38.272 85.333 85.333 85.333h682.667c47.061 0 85.333-38.272 85.333-85.333v-512c0-47.061-38.272-85.333-85.333-85.333h-369.792l-227.541-170.667zM170.667 789.333v-512h170.667v-85.333l113.792 85.333h398.208v512h-682.667z" />
<glyph unicode="&#xe930;" glyph-name="chat-bubble-square-add" d="M128-64v170.667h-42.667c-47.061 0-85.333 38.272-85.333 85.333v384c0 47.061 38.272 85.333 85.333 85.333h554.667c47.061 0 85.333-38.272 85.333-85.333v-384c0-47.061-38.272-85.333-85.333-85.333h-284.459l-227.541-170.667zM85.333 576v-384h128v-85.333l113.792 85.333h312.875v384h-554.667zM896 832v128h-85.333v-128h-128v-85.333h128v-128h85.333v128h128v85.333z" />
<glyph unicode="&#xe931;" glyph-name="chat-bubble-square-check" d="M128-64v170.667h-42.667c-47.061 0-85.333 38.272-85.333 85.333v384c0 47.061 38.272 85.333 85.333 85.333h384v-85.333h-384v-384h128v-85.333l113.792 85.333h312.875v256h85.333v-256c0-47.061-38.272-85.333-85.333-85.333h-284.459l-227.541-170.667zM682.667 558.336l-158.165 158.165 60.331 60.331 97.835-97.835 183.168 183.168 60.331-60.331z" />
<glyph unicode="&#xe932;" glyph-name="chat-bubble-square-close" d="M640 192h-312.875l-113.792-85.333v85.333h-128v384h384v85.333h-384c-47.061 0-85.333-38.272-85.333-85.333v-384c0-47.061 38.272-85.333 85.333-85.333h42.667v-170.667l227.541 170.667h284.459c47.061 0 85.333 38.272 85.333 85.333v256h-85.333v-256zM883.499 801.835l-60.331 60.331-97.835-97.835-97.835 97.835-60.331-60.331 97.835-97.835-97.835-97.835 60.331-60.331 97.835 97.835 97.835-97.835 60.331 60.331-97.835 97.835z" />
<glyph unicode="&#xe933;" glyph-name="chat-bubble-square-smiley" d="M256 21.333v170.667h-85.333c-47.061 0-85.333 38.272-85.333 85.333v512c0 47.061 38.272 85.333 85.333 85.333h682.667c47.061 0 85.333-38.272 85.333-85.333v-512c0-47.061-38.272-85.333-85.333-85.333h-369.792l-227.541-170.667zM170.667 789.333v-512h170.667v-85.333l113.792 85.333h398.208v512h-682.667zM316.672 490.667c32.939-75.264 107.861-128 195.328-128s162.389 52.736 195.328 128h-390.656zM437.333 650.667c0-29.455-23.878-53.333-53.333-53.333s-53.333 23.878-53.333 53.333c0 29.455 23.878 53.333 53.333 53.333s53.333-23.878 53.333-53.333zM693.333 650.667c0-29.455-23.878-53.333-53.333-53.333s-53.333 23.878-53.333 53.333c0 29.455 23.878 53.333 53.333 53.333s53.333-23.878 53.333-53.333z" />
<glyph unicode="&#xe934;" glyph-name="chat-bubble-square-subtract" d="M682.667 832.256h256v-85.333h-256v85.333zM128-64v170.667h-42.667c-47.061 0-85.333 38.272-85.333 85.333v384c0 47.061 38.272 85.333 85.333 85.333h554.667c47.061 0 85.333-38.272 85.333-85.333v-384c0-47.061-38.272-85.333-85.333-85.333h-284.459l-227.541-170.667zM85.333 576v-384h128v-85.333l113.792 85.333h312.875v384h-554.667z" />
<glyph unicode="&#xe935;" glyph-name="check-box" d="M768 21.333h-597.333c-47.061 0-85.333 38.272-85.333 85.333v512c0 47.019 38.272 85.333 85.333 85.333h426.667v-85.333h-426.667v-512h597.333v213.333h85.333v-213.333c0-47.061-38.272-85.333-85.333-85.333zM471.168 200.064l-210.219 210.176 75.435 75.477 131.115-131.157 389.035 427.989 78.933-71.765z" />
<glyph unicode="&#xe936;" glyph-name="chef-1" d="M512 320c117.632 0 213.333 95.701 213.333 213.333v298.667c0 47.061-38.272 85.333-85.333 85.333h-256c-47.061 0-85.333-38.272-85.333-85.333v-298.667c0-117.632 95.701-213.333 213.333-213.333zM384 832h256v-213.333h-256v213.333zM640 533.333c0-70.571-57.429-128-128-128s-128 57.429-128 128h256zM512 277.333c-200.96 0-341.333-105.259-341.333-256v-85.333h682.667v85.333c0 150.741-140.373 256-341.333 256zM384 171.904v-150.571h-128c0 68.523 49.024 122.923 128 150.571zM469.333 21.333v168.491c13.781 1.323 27.947 2.176 42.667 2.176 150.741 0 256-70.187 256-170.667h-298.667zM597.333 106.667c0-23.564-19.103-42.667-42.667-42.667s-42.667 19.103-42.667 42.667c0 23.564 19.103 42.667 42.667 42.667s42.667-19.103 42.667-42.667z" />
<glyph unicode="&#xe937;" glyph-name="chef-hat" d="M767.925 789.34c-26.324 0-51.625-5.93-74.536-17.151-38.014 62.333-106.406 102.481-181.454 102.481s-143.439-40.148-181.454-102.481c-22.911 11.221-48.211 17.151-74.536 17.151-94.119 0-170.66-76.541-170.66-170.66 0-79.357 54.483-146.255 127.995-165.284v-389.36c0-23.551 19.114-42.665 42.665-42.665h511.979c23.551 0 42.665 19.114 42.665 42.665v389.36c73.512 19.029 127.995 85.927 127.995 165.284 0 94.119-76.541 170.66-170.66 170.66zM298.612 106.702v42.665h426.649v-42.665h-426.649zM767.925 533.351c-23.551 0-42.665-19.114-42.665-42.665v-255.989h-42.665v127.995h-85.33v-127.995h-42.665v170.66h-85.33v-170.66h-42.665v127.995h-85.33v-127.995h-42.665v255.989c0 23.551-19.114 42.665-42.665 42.665-47.059 0-85.33 38.27-85.33 85.33 0 47.102 38.27 85.33 85.33 85.33 23.295 0 45.139-9.386 61.437-26.495 10.624-11.050 26.324-15.573 41.214-11.904 14.89 3.755 26.623 15.146 30.761 29.908 15.402 55.251 65.789 93.82 122.576 93.82s107.174-38.569 122.619-93.82c4.138-14.762 15.871-26.154 30.761-29.908 14.933-3.669 30.591 0.853 41.214 11.904 16.255 17.109 38.1 26.495 61.395 26.495 47.059 0 85.33-38.228 85.33-85.33 0-47.059-38.27-85.33-85.33-85.33z" />
<glyph unicode="&#xe938;" glyph-name="close" d="M883.499 759.168l-60.331 60.331-311.168-311.168-311.168 311.168-60.331-60.331 311.168-311.168-311.168-311.168 60.331-60.331 311.168 311.168 311.168-311.168 60.331 60.331-311.168 311.168z" />
<glyph unicode="&#xe939;" glyph-name="cloud" d="M640 149.333h-341.333c-117.632 0-213.333 95.701-213.333 213.333s95.701 213.333 213.333 213.333c22.741 0 45.227-3.669 66.688-10.837 46.037 109.013 152.661 181.504 274.645 181.504 164.693 0 298.667-133.973 298.667-298.667s-133.973-298.667-298.667-298.667zM298.667 490.667c-70.571 0-128-57.429-128-128s57.429-128 128-128h341.333c117.632 0 213.333 95.701 213.333 213.333s-95.701 213.333-213.333 213.333c-99.712 0-185.088-67.84-207.616-164.992-3.115-13.483-12.672-24.661-25.557-29.867-12.843-5.205-27.477-3.883-39.125 3.669-20.821 13.397-44.715 20.523-69.035 20.523z" />
<glyph unicode="&#xe93a;" glyph-name="cloud-harddisk-1" d="M384 533.333h213.333c117.632 0 213.333 95.701 213.333 213.333s-95.701 213.333-213.333 213.333c-69.589 0-134.229-34.432-173.781-90.197-12.971 3.243-26.197 4.864-39.552 4.864-94.123 0-170.667-76.544-170.667-170.667s76.544-170.667 170.667-170.667zM384 789.333c13.013 0 26.069-3.328 38.784-9.899 10.411-5.333 22.571-6.229 33.536-2.432 11.051 3.84 20.053 11.989 24.875 22.656 20.779 45.568 66.389 75.008 116.139 75.008 70.571 0 128-57.429 128-128s-57.429-128-128-128h-213.333c-47.061 0-85.333 38.272-85.333 85.333s38.272 85.333 85.333 85.333zM810.667 448h-597.333c-47.061 0-85.333-38.272-85.333-85.333v-341.333c0-47.061 38.272-85.333 85.333-85.333h597.333c47.061 0 85.333 38.272 85.333 85.333v341.333c0 47.061-38.272 85.333-85.333 85.333zM810.667 362.667l-0.043-128h-597.291v128h597.333zM213.333 21.333v128h597.248l-0.043-128h-597.205zM618.667 85.333c0-23.564-19.103-42.667-42.667-42.667s-42.667 19.103-42.667 42.667c0 23.564 19.103 42.667 42.667 42.667s42.667-19.103 42.667-42.667zM746.667 85.333c0-23.564-19.103-42.667-42.667-42.667s-42.667 19.103-42.667 42.667c0 23.564 19.103 42.667 42.667 42.667s42.667-19.103 42.667-42.667zM618.667 298.667c0-23.564-19.103-42.667-42.667-42.667s-42.667 19.103-42.667 42.667c0 23.564 19.103 42.667 42.667 42.667s42.667-19.103 42.667-42.667zM746.667 298.667c0-23.564-19.103-42.667-42.667-42.667s-42.667 19.103-42.667 42.667c0 23.564 19.103 42.667 42.667 42.667s42.667-19.103 42.667-42.667z" />
<glyph unicode="&#xe93b;" glyph-name="coffee-mug" d="M938.67 405.356c0 186.19-93.82 282.143-97.831 286.153-7.978 8.021-18.858 12.501-30.164 12.501h-110.331l97.831 97.831-60.328 60.328-158.159-158.159h-408.986v-85.33h620.091c20.266-27.178 62.547-97.66 62.547-213.324 0-44.201-30.292-85.159-64.765-116.987 6.229 106.108-18.901 218.316-75.73 275.146-7.978 8.021-18.858 12.501-30.164 12.501h-554.644c-17.237 0-32.809-10.41-39.422-26.324-6.613-15.957-2.944-34.303 9.258-46.505l61.096-61.139c-44.67-80.338-80.935-225.996 20.266-360.988 8.064-10.752 20.692-17.023 34.132-17.023h469.314c11.306 0 22.186 4.48 30.164 12.501 22.228 22.228 39.294 53.16 51.881 88.572 49.961 29.652 173.945 115.707 173.945 240.246zM663.055 490.686c21.332-29.695 34.175-76.967 38.782-127.995h-485.313c13.183 34.815 29.311 57.47 30.975 59.688 12.757 16.981 11.050 40.788-3.968 55.806l-12.501 12.501h432.025zM663.055 149.367h-427.374c-28.457 44.67-37.246 88.658-36.308 127.995h502.464c-4.608-51.027-17.45-98.3-38.782-127.995z" />
<glyph unicode="&#xe93c;" glyph-name="cog-box" d="M810.667 64h-597.333c-47.061 0-85.333 38.272-85.333 85.333v597.333c0 47.019 38.272 85.333 85.333 85.333h597.333c47.061 0 85.333-38.315 85.333-85.333v-597.333c0-47.061-38.272-85.333-85.333-85.333zM213.333 746.667v-597.333h597.376l-0.043 597.333h-597.333zM768 405.333v85.333h-91.392c-4.011 15.488-10.155 30.037-18.133 43.477l64.725 64.725-60.331 60.331-64.725-64.725c-13.44 7.979-27.989 14.123-43.477 18.133v91.392h-85.333v-91.392c-15.488-4.011-30.037-10.155-43.477-18.133l-64.725 64.725-60.331-60.331 64.725-64.725c-7.979-13.44-14.123-27.989-18.133-43.477h-91.392v-85.333h91.392c4.011-15.488 10.155-30.037 18.133-43.477l-64.725-64.725 60.331-60.331 64.725 64.725c13.44-7.979 27.989-14.123 43.477-18.133v-91.392h85.333v91.392c15.488 4.011 30.037 10.155 43.477 18.133l64.725-64.725 60.331 60.331-64.725 64.725c7.979 13.44 14.123 27.947 18.133 43.477h91.392zM512 362.667c-47.061 0-85.333 38.272-85.333 85.333 0 47.019 38.272 85.333 85.333 85.333s85.333-38.315 85.333-85.333c0-47.061-38.272-85.333-85.333-85.333z" />
<glyph unicode="&#xe93d;" glyph-name="coin-purse-1" d="M512 533.333c-235.264 0-426.667-191.403-426.667-426.667 0-23.552 19.115-42.667 42.667-42.667h768c23.552 0 42.667 19.115 42.667 42.667 0 235.264-191.403 426.667-426.667 426.667zM173.312 149.333c21.077 168.107 164.949 298.667 338.688 298.667s317.611-130.517 338.688-298.667h-677.376zM512 576c132.651 0 259.883-57.045 349.099-156.459l63.531 56.96c-61.995 69.12-139.819 120.32-225.109 151.211 16 21.333 25.813 47.573 25.813 76.288 0 70.571-57.429 128-128 128-32.896 0-62.635-12.8-85.333-33.28-22.699 20.437-52.437 33.28-85.333 33.28-70.571 0-128-57.472-128-128 0-28.672 9.813-54.955 25.813-76.331-85.333-30.891-163.115-82.091-225.109-151.211l63.531-56.96c89.216 99.413 216.448 156.501 349.099 156.501zM597.333 746.667c23.509 0 42.667-19.157 42.667-42.667 0-23.552-19.157-42.667-42.667-42.667s-42.667 19.115-42.667 42.667c0 23.509 19.157 42.667 42.667 42.667zM426.667 746.667c23.509 0 42.667-19.157 42.667-42.667 0-23.552-19.157-42.667-42.667-42.667s-42.667 19.115-42.667 42.667c0 23.509 19.157 42.667 42.667 42.667z" />
<glyph unicode="&#xe93e;" glyph-name="coin-stack-1" d="M174.336 746.667c20.309 17.28 90.837 42.667 166.997 42.667s146.688-25.344 166.997-42.667h89.003c0 95.744-175.829 128-256 128s-256-32.256-256-128v-512c0-95.787 175.829-128 256-128 12.245 0 26.923 0.853 42.667 2.475v85.675c-13.867-1.664-28.075-2.816-42.667-2.816-81.749 0-157.099 29.227-170.667 46.336v29.568c56.32-23.723 127.36-33.237 170.667-33.237 12.288 0 26.923 0.853 42.667 2.475v85.675c-13.867-1.664-28.075-2.816-42.667-2.816-82.645 0-158.251 29.781-170.667 46.848v29.099c56.32-23.765 127.36-33.28 170.667-33.28 12.288 0 26.923 0.853 42.667 2.475v85.675c-13.867-1.664-28.075-2.816-42.667-2.816-82.645 0-158.251 29.781-170.667 46.848v29.099c56.32-23.765 127.36-33.28 170.667-33.28 12.288 0 26.923 0.853 42.667 2.475v85.632c-13.867-1.621-28.075-2.773-42.667-2.773-82.645 0-158.251 29.739-170.667 46.805v29.099c56.32-23.723 127.36-33.237 170.667-33.237 12.288 0 26.923 0.853 42.667 2.475v85.589c-13.867-1.621-28.075-2.731-42.667-2.731-76.117 0-146.688 25.301-166.997 42.667zM682.667 661.333c-80.171 0-256-32.256-256-128v-384c0-95.787 175.829-128 256-128s256 32.213 256 128v384c0 95.744-175.829 128-256 128zM853.333 409.472c-12.416-17.067-88.021-46.805-170.667-46.805s-158.251 29.781-170.667 46.848v29.099c56.32-23.765 127.36-33.28 170.667-33.28s114.347 9.515 170.667 33.237v-29.099zM853.333 281.472c-12.416-17.067-88.021-46.805-170.667-46.805s-158.251 29.781-170.667 46.848v29.099c56.32-23.765 127.36-33.28 170.667-33.28s114.347 9.515 170.667 33.237v-29.099zM682.667 576c76.16 0 146.688-25.344 166.997-42.667-20.309-17.323-90.88-42.667-166.997-42.667s-146.688 25.344-166.997 42.667c20.309 17.28 90.837 42.667 166.997 42.667zM682.667 106.667c-81.749 0-157.099 29.227-170.667 46.336v29.568c56.32-23.723 127.36-33.237 170.667-33.237s114.347 9.515 170.667 33.237v-29.568c-13.568-17.109-88.917-46.336-170.667-46.336z" />
<glyph unicode="&#xe93f;" glyph-name="color-palette" d="M923.349 662.229c-0.683 22.784-10.155 43.947-26.667 59.563l-98.347 93.056c-32.896 31.104-89.643 29.44-120.619-3.371l-123.051-130.133v-124.203l185.003 195.627 98.347-93.056-283.349-299.563v-124.203l345.301 365.141c15.659 16.469 23.979 38.144 23.381 61.141zM426.667 874.667h-256c-47.061 0-85.333-38.315-85.333-85.333v-682.667c0-47.061 38.272-85.333 85.333-85.333h256c47.061 0 85.333 38.272 85.333 85.333v682.667c0 47.019-38.272 85.333-85.333 85.333zM170.667 106.667v682.667h256l0.043-682.667h-256.043zM213.333 704h170.667v-170.667h-170.667v170.667zM213.333 448h170.667v-170.667h-170.667v170.667zM341.333 192c0-23.564-19.103-42.667-42.667-42.667s-42.667 19.103-42.667 42.667c0 23.564 19.103 42.667 42.667 42.667s42.667-19.103 42.667-42.667zM976.768 194.261l-15.445 134.485c-2.603 22.272-14.123 43.051-31.701 57.088-17.877 14.165-40.064 20.565-62.805 17.877l-100.096-11.52 9.771-84.779 100.053 11.563 15.488-134.528-337.365-38.699v-85.888l347.051 39.893c22.656 2.603 42.923 13.824 57.131 31.701 14.165 17.835 20.523 40.149 17.92 62.805z" />
<glyph unicode="&#xe940;" glyph-name="computer-personal-1" d="M853.333 21.333h-682.667c-47.061 0-85.333 38.272-85.333 85.333v170.667c0 47.061 38.272 85.333 85.333 85.333h682.667c47.061 0 85.333-38.272 85.333-85.333v-170.667c0-47.061-38.272-85.333-85.333-85.333zM170.667 277.333v-170.667h682.709l-0.043 170.667h-682.667zM810.667 192c0-23.564-19.103-42.667-42.667-42.667s-42.667 19.103-42.667 42.667c0 23.564 19.103 42.667 42.667 42.667s42.667-19.103 42.667-42.667zM768 405.333h-512c-47.061 0-85.333 38.272-85.333 85.333v341.333c0 47.061 38.272 85.333 85.333 85.333h512c47.061 0 85.333-38.272 85.333-85.333v-341.333c0-47.061-38.272-85.333-85.333-85.333zM256 832v-341.333h512.043l-0.043 341.333h-512z" />
<glyph unicode="&#xe941;" glyph-name="computer-screen-1" d="M938.667 832h-853.333c-47.061 0-85.333-38.272-85.333-85.333v-554.667c0-47.061 38.272-85.333 85.333-85.333h384v-85.333h-170.667v-85.333h426.667v85.333h-170.667v85.333h384c47.061 0 85.333 38.272 85.333 85.333v554.667c0 47.061-38.272 85.333-85.333 85.333zM938.667 746.667l-0.085-426.667h-853.248v426.667h853.333zM85.333 192v42.667h853.205v-42.667h-853.205z" />
<glyph unicode="&#xe942;" glyph-name="content-book-2" d="M896 789.333h-298.667c-11.307 0-22.187-4.523-30.165-12.501l-55.168-55.168-55.168 55.168c-7.979 7.979-18.859 12.501-30.165 12.501h-298.667c-23.552 0-42.667-19.115-42.667-42.667v-554.667c0-23.552 19.115-42.667 42.667-42.667h281.003l72.832-72.832c8.32-8.32 19.243-12.501 30.165-12.501s21.845 4.181 30.165 12.501l72.832 72.832h281.003c23.552 0 42.667 19.115 42.667 42.667v554.667c0 23.552-19.115 42.667-42.667 42.667zM426.667 234.667h-256v469.333h238.336l60.331-60.331v-434.005l-12.501 12.501c-7.979 7.979-18.859 12.501-30.165 12.501zM853.333 234.667h-256c-11.307 0-22.187-4.523-30.165-12.501l-12.501-12.501v434.005l60.331 60.331h238.336v-469.333z" />
<glyph unicode="&#xe943;" glyph-name="content-book-6" d="M853.333 874.667h-682.667c-23.552 0-42.667-19.115-42.667-42.667v-768c0-23.552 19.115-42.667 42.667-42.667h682.667c23.552 0 42.667 19.115 42.667 42.667v768c0 23.552-19.115 42.667-42.667 42.667zM213.333 789.333h85.333v-682.667h-85.333v682.667zM810.667 106.667h-426.667v682.667h426.667v-682.667z" />
<glyph unicode="&#xe944;" glyph-name="content-bookmark-4" d="M853.333 874.667h-682.667c-23.552 0-42.667-19.115-42.667-42.667v-768c0-23.552 19.115-42.667 42.667-42.667h682.667c23.552 0 42.667 19.115 42.667 42.667v768c0 23.552-19.115 42.667-42.667 42.667zM213.333 789.333h85.333v-682.667h-85.333v682.667zM810.667 106.667h-426.667v682.667h128v-384l106.667 85.333 106.667-85.333v384h85.333v-682.667z" />
<glyph unicode="&#xe945;" glyph-name="couch" d="M894.043 595.343c-9.941 108.454-100.39 193.912-211.362 193.912h-341.319c-111.014 0-201.421-85.5-211.362-193.912-73.128-9.642-129.957-71.677-129.957-147.407v-213.324c0-47.017 38.27-85.33 85.33-85.33v-42.665h85.33v42.665h682.638v-42.665h85.33v42.665c47.059 0 85.33 38.313 85.33 85.33v213.324c0 75.688-56.83 137.765-129.957 147.407zM810.078 581.989c-49.918-24.191-84.732-74.92-84.732-134.053h-170.66v255.989h127.995c68.52 0 124.155-54.184 127.397-121.936zM341.362 703.925h127.995v-255.989h-170.66c0 59.134-34.772 109.862-84.732 134.053 3.243 67.752 58.878 121.936 127.397 121.936zM938.67 234.612h-853.298v213.324c0 35.284 28.713 63.997 63.997 63.997s63.997-28.713 63.997-63.997v-42.665c0-23.551 19.114-42.665 42.665-42.665h511.979c23.551 0 42.665 19.114 42.665 42.665v42.665c0 35.284 28.713 63.997 63.997 63.997s63.997-28.713 63.997-63.997v-213.324z" />
<glyph unicode="&#xe946;" glyph-name="crop-image" d="M386.773 461.355l-88.107-141.355h426.667l-159.019 255.104-125.227-200.875zM256 234.667v384h-85.333v-384c0-47.061 38.272-85.333 85.333-85.333h725.333v85.333h-725.333zM768 277.333h85.333v384c0 47.019-38.272 85.333-85.333 85.333h-725.333v-85.333h725.333v-384zM170.667 917.333h85.333v-128h-85.333v128zM768 106.667h85.333v-128h-85.333v128z" />
<glyph unicode="&#xe947;" glyph-name="cursor-arrow-1" d="M840.832 179.499l-225.835 225.835 140.501 140.501c10.453 10.453 14.763 25.557 11.349 39.936s-13.995 25.984-28.032 30.677l-512 170.667c-15.36 5.077-32.256 1.109-43.648-10.325-11.435-11.392-15.403-28.288-10.325-43.605l170.667-512c4.693-13.995 16.299-24.619 30.677-28.032 3.285-0.768 6.528-1.152 9.813-1.152 11.179 0 22.101 4.437 30.165 12.501l140.501 140.501 225.835-225.792 60.331 60.288zM402.645 313.685l-121.856 365.483 365.568-121.813-243.712-243.669z" />
<glyph unicode="&#xe948;" glyph-name="cursor-arrow-2" d="M469.333 21.333c-17.152 0-32.811 10.368-39.424 26.411l-298.667 725.333c-6.613 15.915-2.944 34.261 9.259 46.421 12.203 12.203 30.507 15.829 46.421 9.301l725.333-298.667c17.024-7.040 27.648-24.192 26.325-42.581-1.365-18.389-14.336-33.792-32.213-38.315l-316.501-79.104-79.104-316.501c-4.48-17.835-19.925-30.848-38.272-32.171-1.109-0.085-2.133-0.128-3.157-0.128zM249.088 710.912l210.304-510.72 53.888 215.467c3.84 15.275 15.787 27.264 31.061 31.061l215.509 53.888-510.763 210.304z" />
<glyph unicode="&#xe949;" glyph-name="cursor-touch-1" d="M810.667 21.333h-298.667c-16.171 0-30.933 9.131-38.187 23.595l-128 256c-6.613 13.227-5.888 28.928 1.877 41.515 7.808 12.544 21.504 20.224 36.309 20.224h85.333v256c0 13.696 6.571 26.581 17.749 34.645 11.093 8.021 25.387 10.155 38.4 5.845l128-42.667c17.451-5.845 29.184-22.101 29.184-40.491v-180.011l138.368-34.603c18.987-4.736 32.299-21.803 32.299-41.387v-256c0-23.552-19.115-42.667-42.667-42.667zM538.368 106.667h229.632v180.011l-138.368 34.56c-18.944 4.779-32.299 21.845-32.299 41.429v182.571l-42.667 14.208v-239.445c0-23.552-19.115-42.667-42.667-42.667h-58.965l85.333-170.667zM768 874.667h-512c-47.061 0-85.333-38.315-85.333-85.333v-298.667c0-47.061 38.272-85.333 85.333-85.333h128v85.333h-128v298.667h512v-298.667h85.333v298.667c0 47.019-38.272 85.333-85.333 85.333z" />
<glyph unicode="&#xe94a;" glyph-name="data-download-5" d="M810.667 832h-597.333c-47.061 0-85.333-38.272-85.333-85.333v-597.333c0-47.061 38.272-85.333 85.333-85.333h597.333c47.061 0 85.333 38.272 85.333 85.333v597.333c0 47.061-38.272 85.333-85.333 85.333zM810.539 149.333h-597.205v597.333h597.333l-0.128-597.333zM712.832 417.835l-60.331 60.331-97.835-97.835v281.003h-85.333v-281.003l-97.835 97.835-60.331-60.331 200.832-200.832z" />
<glyph unicode="&#xe94b;" glyph-name="data-upload-5" d="M810.667 832h-597.333c-47.061 0-85.333-38.272-85.333-85.333v-597.333c0-47.061 38.272-85.333 85.333-85.333h597.333c47.061 0 85.333 38.272 85.333 85.333v597.333c0 47.061-38.272 85.333-85.333 85.333zM810.539 149.333h-597.205v597.333h597.333l-0.128-597.333zM469.333 515.669v-281.003h85.333v281.003l97.835-97.835 60.331 60.331-200.832 200.832-200.832-200.832 60.331-60.331z" />
<glyph unicode="&#xe94c;" glyph-name="devices" d="M512 106.667h-341.333v42.667h341.333v85.333h-341.333v426.667h512v-42.667h85.333v170.667c0 47.061-38.272 85.333-85.333 85.333h-512c-47.061 0-85.333-38.272-85.333-85.333v-682.667c0-47.061 38.272-85.333 85.333-85.333h341.333v85.333zM170.667 789.333h512v-42.667h-512v42.667zM853.333 533.333h-170.667c-47.061 0-85.333-38.272-85.333-85.333v-341.333c0-47.061 38.272-85.333 85.333-85.333h170.667c47.061 0 85.333 38.272 85.333 85.333v341.333c0 47.061-38.272 85.333-85.333 85.333zM853.333 448l0.043-213.333h-170.709v213.333h170.667zM682.667 106.667v42.667h170.709v-42.667h-170.709z" />
<glyph unicode="&#xe94d;" glyph-name="dna" d="M949.461 644.096l-27.051-27.051c-1.024-1.024-2.261-1.877-3.328-2.901l-240.981 240.939c1.024 1.067 1.877 2.304 2.944 3.328l27.051 27.051-60.331 60.331-27.051-27.051c-111.829-111.829-168.192-266.411-157.141-422.4-155.947 11.051-310.571-45.269-422.315-157.099l-27.051-27.051 60.331-60.331 27.051 27.093c1.024 1.024 2.261 1.877 3.328 2.901l240.981-240.981c-1.024-1.024-1.877-2.261-2.944-3.285l-27.051-27.051 60.331-60.331 27.051 27.051c111.829 111.787 168.192 266.368 157.141 422.315 155.989-11.136 310.485 45.312 422.315 157.141l27.051 27.051-60.331 60.331zM852.096 560.427c-24.917-16.555-51.2-30.677-78.677-42.027l-191.019 191.061c11.349 27.477 25.429 53.717 42.027 78.635l227.669-227.669zM473.557 409.515c4.651-43.733 3.541-87.552-4.181-130.091l-125.952 125.952c42.581 7.723 86.357 8.789 130.133 4.139zM171.904 335.531c24.917 16.64 51.157 30.72 78.635 42.027l191.061-191.061c-11.349-27.477-25.429-53.717-42.027-78.677l-227.669 227.712zM550.485 486.443c-4.651 43.776-3.584 87.552 4.181 130.133l125.909-125.952c-42.539-7.723-86.315-8.789-130.091-4.181z" />
<glyph unicode="&#xe94e;" glyph-name="download-computer" d="M810.667 618.667h-42.667v-85.333h42.667v-213.333h-597.333v213.333h42.667v85.333h-42.667c-47.061 0-85.333-38.272-85.333-85.333v-384c0-47.061 38.272-85.333 85.333-85.333h256v-42.667h-128v-85.333h341.333v85.333h-128v42.667h256c47.061 0 85.333 38.272 85.333 85.333v384c0 47.061-38.272 85.333-85.333 85.333zM213.333 149.333v85.333h597.333v-85.333h-597.333zM712.832 631.168l-60.331 60.331-97.835-97.835v366.336h-85.333v-366.336l-97.835 97.835-60.331-60.331 200.832-200.832z" />
<glyph unicode="&#xe94f;" glyph-name="eco-car" d="M253.376 600.179l85.582 28.67c33.192-54.011 92.579-88.697 157.384-88.697 22.099 0 43.858 3.968 64.677 11.69 99.746 37.288 216.814 217.155 269.674 299.58-42.663 10.751-214.51 56.571-329.146 56.571-29.395 0-52.262-3.2-69.882-9.77-86.179-32.168-133.578-122.187-115.916-209.689l-82.681-27.688 20.308-60.667zM461.53 818.316c3.541 1.323 14.505 4.394 40.018 4.394 56.401 0 136.266-14.42 190.619-25.854-49.575-68.688-117.622-148.852-161.011-165.064-37.757-14.079-80.377-2.261-107.212 25.513l144.329 48.38-20.35 60.667-150.302-50.385c-3.925 43.602 20.99 86.307 63.909 102.349zM847.119 256.656l-127.989 213.316c-7.679 12.884-21.588 20.734-36.562 20.734h-341.305c-14.975 0-28.883-7.85-36.562-20.734l-127.989-213.316c-4.010-6.655-6.101-14.207-6.101-21.929v-127.989c0-23.55 19.113-42.663 42.663-42.663h42.663v-21.332c0-35.282 28.712-63.995 63.995-63.995s63.995 28.712 63.995 63.995v21.332h255.979v-21.332c0-35.282 28.712-63.995 63.995-63.995s63.995 28.712 63.995 63.995v21.332h42.663c23.55 0 42.663 19.113 42.663 42.663v127.989c0 7.722-2.090 15.273-6.101 21.929zM365.41 405.38h292.968l76.794-127.989h-446.555l76.794 127.989zM255.936 149.401v42.663h85.326v-42.663h-85.326zM426.588 192.064h170.652v-42.663h-170.652v42.663zM682.567 149.401v42.663h85.326v-42.663h-85.326z" />
<glyph unicode="&#xe950;" glyph-name="eco-factory" d="M381.355 557.44l85.888 28.459c33.195-53.888 92.501-88.448 157.227-88.448 22.101 0 43.861 3.968 64.683 11.691 99.755 37.291 216.832 217.173 269.696 299.605-42.667 10.752-214.528 56.576-329.173 56.576-29.397 0-52.267-3.2-69.888-9.771-86.272-32.213-133.675-122.453-115.84-210.048l-82.731-27.307 20.139-60.757zM589.611 775.637c3.541 1.323 14.507 4.395 40.021 4.395 56.405 0 136.277-14.421 190.635-25.856-49.579-68.693-117.632-148.864-161.024-165.077-37.547-13.995-79.829-2.347-106.667 25.045l147.243 48.768-20.139 60.757-153.984-51.029c-4.224 43.861 20.779 86.912 63.915 102.997zM896 405.333h-597.333v128c0 11.307-4.48 22.187-12.501 30.165l-128 128c-12.245 12.203-30.549 15.872-46.507 9.259s-26.325-22.187-26.325-39.424v-640c0-23.552 19.115-42.667 42.667-42.667h768c23.552 0 42.667 19.115 42.667 42.667v341.333c0 23.552-19.115 42.667-42.667 42.667zM853.333 64h-682.667v494.336l42.667-42.667v-153.003c0-23.552 19.115-42.667 42.667-42.667h597.333v-256zM256 234.667h128v-85.333h-128v85.333zM469.333 234.667h128v-85.333h-128v85.333zM682.667 234.667h128v-85.333h-128v85.333z" />
<glyph unicode="&#xe951;" glyph-name="eco-field" d="M469.333 832h85.333v-85.333h-85.333v85.333zM692.981 774.665l60.339-60.339-60.339-60.339-60.339 60.339 60.339 60.339zM725.333 576h85.333v-85.333h-85.333v85.333zM330.965 774.679l60.339-60.339-60.339-60.339-60.339 60.339 60.339 60.339zM213.333 576h85.333v-85.333h-85.333v85.333zM1019.477 40.405l-170.667 341.333c-7.211 14.464-22.016 23.595-38.144 23.595h-597.333c-16.171 0-30.933-9.131-38.187-23.595l-170.667-341.333c-6.613-13.227-5.888-28.928 1.877-41.557 7.765-12.544 21.504-20.181 36.309-20.181h938.667c14.805 0 28.501 7.637 36.309 20.181 7.723 12.629 8.448 28.331 1.835 41.557zM554.667 320h55.765l96-256h-151.765v256zM469.333 64h-151.765l96 256h55.765v-256zM239.701 320h82.731l-96-256h-114.731l128 256zM797.568 64l-96 256h82.688l128-256h-114.688zM351.573 476.416c6.059-17.024 22.144-28.416 40.235-28.416h240.341c18.091 0 34.176 11.392 40.235 28.416 6.912 19.541 10.283 38.144 10.283 56.917 0 94.123-76.544 170.667-170.667 170.667s-170.667-76.544-170.667-170.667c0-18.773 3.328-37.376 10.24-56.917zM512 618.667c47.061 0 85.333-38.272 85.333-85.333h-170.667c0 47.061 38.229 85.333 85.333 85.333z" />
<glyph unicode="&#xe952;" glyph-name="email-heart" d="M853.333 21.333h-682.667c-47.061 0-85.333 38.272-85.333 85.333v384c0 16.555 9.6 31.616 24.576 38.613 14.933 7.040 32.683 4.736 45.397-5.845l244.139-203.435h225.109l244.139 203.477c12.715 10.581 30.379 12.8 45.397 5.845 14.976-7.040 24.576-22.101 24.576-38.656v-384c0-47.061-38.272-85.333-85.333-85.333zM170.667 399.573v-292.907h682.709l-0.043 292.907-186.027-155.051c-7.68-6.357-17.323-9.856-27.307-9.856h-256c-9.984 0-19.627 3.499-27.307 9.856l-186.027 155.051zM853.333 576h-85.333v213.333h-512v-213.333h-85.333v298.667h682.667zM512 405.333c0 0 170.667 124.117 170.667 216.064 0 87.339-132.736 125.269-170.667 10.581-37.931 114.688-170.667 76.757-170.667-10.581 0-91.947 170.667-216.064 170.667-216.064z" />
<glyph unicode="&#xe953;" glyph-name="email-inbox" d="M853.333 490.667h-682.667c-47.061 0-85.333-38.315-85.333-85.333v-384c0-47.061 38.272-85.333 85.333-85.333h682.667c47.061 0 85.333 38.272 85.333 85.333v384c0 47.019-38.272 85.333-85.333 85.333zM772.821 405.333l-260.821-163.029-260.821 163.029h521.643zM170.667 21.333v333.696l318.72-199.211c6.912-4.309 14.763-6.485 22.613-6.485s15.701 2.176 22.613 6.485l318.72 199.211 0.043-333.696h-682.709zM712.832 759.168l-60.331 60.331-97.835-97.835v195.669h-85.333v-195.669l-97.835 97.835-60.331-60.331 200.832-200.875z" />
<glyph unicode="&#xe954;" glyph-name="email-outbox" d="M853.333 490.667h-682.667c-47.061 0-85.333-38.315-85.333-85.333v-384c0-47.061 38.272-85.333 85.333-85.333h682.667c47.061 0 85.333 38.272 85.333 85.333v384c0 47.019-38.272 85.333-85.333 85.333zM772.821 405.333l-260.821-163.029-260.821 163.029h521.643zM170.667 21.333v333.696l318.72-199.211c6.912-4.309 14.763-6.485 22.613-6.485s15.701 2.176 22.613 6.485l318.72 199.211 0.043-333.696h-682.709zM469.333 771.627v-195.627h85.333v195.627l97.835-97.792 60.331 60.331-200.832 200.832-200.832-200.832 60.331-60.331z" />
<glyph unicode="&#xe955;" glyph-name="email-timeout" d="M597.333 277.333l0.043-256h-512.043v301.099l231.211-165.163c7.424-5.291 16.085-7.936 24.789-7.936s17.365 2.688 24.789 7.936l145.877 104.192v101.205h-5.163l-165.504-118.229-165.504 118.229h165.504v85.333h-256c-47.061 0-85.333-38.315-85.333-85.333v-341.333c0-47.061 38.272-85.333 85.333-85.333h512c47.061 0 85.333 38.272 85.333 85.333v256h-85.333zM725.333 362.667c-164.693 0-298.667 133.973-298.667 298.667s133.973 298.667 298.667 298.667 298.667-133.973 298.667-298.667c0-164.693-133.973-298.667-298.667-298.667zM725.333 874.667c-117.632 0-213.333-95.701-213.333-213.333s95.701-213.333 213.333-213.333 213.333 95.701 213.333 213.333c0 117.632-95.701 213.333-213.333 213.333zM853.333 618.667h-170.667v213.333h85.333v-128h85.333z" />
<glyph unicode="&#xe956;" glyph-name="envelope-1" d="M938.667 106.667h-853.333c-47.061 0-85.333 38.272-85.333 85.333v469.333c0 47.019 38.272 85.333 85.333 85.333h853.333c47.061 0 85.333-38.315 85.333-85.333v-469.333c0-47.061-38.272-85.333-85.333-85.333zM85.333 661.333v-469.333h853.376l-0.043 469.333h-853.333zM170.667 490.667h341.333v-85.333h-341.333v85.333zM170.667 362.667h341.333v-85.333h-341.333v85.333zM682.667 618.667h170.667v-170.667h-170.667v170.667z" />
<glyph unicode="&#xe957;" glyph-name="espresso-machine" d="M896.005 832.005h-682.638c-23.551 0-42.665-19.114-42.665-42.665v-255.989c0-23.551 19.114-42.665 42.665-42.665h42.665v-85.33h-127.995v-85.33h127.995v-42.665h85.33v42.665h42.665v85.33h-42.665v85.33h127.995v-341.319h-383.984v-85.33h853.298v725.303c0 23.551-19.114 42.665-42.665 42.665zM512.021 576.016h-255.989v170.66h597.308v-42.665h-170.66v-85.33h170.66v-42.665h-170.66v-85.33h170.66v-42.665h-127.995c-23.551 0-42.665-19.114-42.665-42.665v-255.989h-127.995v383.984c0 23.551-19.114 42.665-42.665 42.665zM768.011 149.367v213.324h85.33v-213.324h-85.33zM298.697 704.011h170.66v-85.33h-170.66v85.33z" />
<glyph unicode="&#xe958;" glyph-name="exposure-level" d="M512 874.581c-235.264 0-426.667-191.36-426.667-426.667 0-235.264 191.403-426.624 426.667-426.624s426.667 191.36 426.667 426.624c0 235.307-191.403 426.667-426.667 426.667zM807.125 618.581h-319.744l94.379 163.456c96.256-20.096 177.493-80.939 225.365-163.456zM635.179 447.915l-49.28-85.333h-147.797l-49.237 85.333 49.28 85.333h147.797l49.237-85.333zM486.656 787.968l-147.072-254.72-81.792 141.653c57.259 64.085 138.069 106.411 228.864 113.067zM204.885 595.883l134.656-233.301h-157.653c-7.040 27.349-11.221 55.851-11.221 85.333 0 53.035 12.501 103.168 34.219 147.968zM216.875 277.248h319.787l-94.379-163.456c-96.256 20.096-177.493 80.939-225.408 163.456zM537.429 107.904l147.029 254.677 81.792-141.653c-57.301-64.043-138.069-106.283-228.821-113.024zM819.115 299.989l-134.656 233.259h157.653c7.083-27.307 11.221-55.808 11.221-85.333 0-53.035-12.501-103.083-34.219-147.925z" />
<glyph unicode="&#xe959;" glyph-name="female-1" d="M512 874.667c-211.712 0-384-172.288-384-384v-42.667h188.757c33.024-75.221 107.989-128 195.243-128s162.219 52.779 195.243 128h188.757v42.667c0 211.712-172.288 384-384 384zM640 533.333c0-70.571-57.429-128-128-128s-128 57.429-128 128v11.349c58.112 21.931 100.651 58.837 128 88.96 27.349-30.123 69.888-67.029 128-88.96v-11.349zM725.333 533.333v42.667c0 19.584-13.312 36.608-32.299 41.387-93.824 23.467-143.573 107.093-144 107.776-15.189 26.539-58.88 26.539-74.069 0-0.469-0.853-50.517-84.437-144-107.776-18.987-4.779-32.299-21.803-32.299-41.387v-42.667h-82.304c20.779 144.555 145.408 256 295.637 256s274.859-111.445 295.637-256h-82.304zM662.827 253.824l-21.717 7.339-129.109-100.437-129.109 100.437-21.717-7.339c-119.296-40.149-190.507-127.061-190.507-232.491v-85.333h682.667v85.333c0 105.429-71.211 192.341-190.507 232.491zM256 21.333c0 62.208 40.277 113.707 111.445 143.744l144.555-112.512 144.555 112.469c71.168-29.995 111.445-81.493 111.445-143.701h-512z" />
<glyph unicode="&#xe95a;" glyph-name="fence-caution" d="M896 661.376h-85.333v7.893c49.579 17.664 85.333 64.597 85.333 120.149 0 70.571-57.429 128-128 128s-128-57.429-128-128c0-55.552 35.755-102.485 85.333-120.149v-7.851h-426.667v7.851c49.579 17.664 85.333 64.597 85.333 120.149 0 70.571-57.429 128-128 128s-128-57.429-128-128c0-55.552 35.755-102.485 85.333-120.149v-7.851h-85.333c-23.552 0-42.667-19.157-42.667-42.667v-256c0-23.552 19.115-42.667 42.667-42.667h42.667v-298.667h85.333v298.667h512v-298.667h85.333v298.667h42.667c23.552 0 42.667 19.115 42.667 42.667v256c0 23.509-19.072 42.624-42.667 42.624zM657.707 576.043h135.339l-170.667-170.667h-135.339l170.667 170.667zM366.336 405.376h-135.296l170.667 170.667h135.339l-170.709-170.667zM768 832.043c23.509 0 42.667-19.157 42.667-42.667 0-23.552-19.157-42.667-42.667-42.667s-42.667 19.115-42.667 42.667c0 23.552 19.157 42.667 42.667 42.667zM256 832.043c23.509 0 42.667-19.157 42.667-42.667 0-23.552-19.157-42.667-42.667-42.667s-42.667 19.115-42.667 42.667c0 23.552 19.157 42.667 42.667 42.667zM281.003 576.043l-110.336-110.293v110.293h110.336zM743.040 405.376l110.293 110.336v-110.336h-110.293z" />
<glyph unicode="&#xe95b;" glyph-name="file-bookmark" d="M657.664 874.667h-401.664c-47.061 0-85.333-38.315-85.333-85.333v-682.667c0-47.061 38.272-85.333 85.333-85.333h512c47.061 0 85.333 38.272 85.333 85.333v572.331l-195.669 195.669zM768.043 106.667h-512.043v682.667h85.333v-384l85.333 85.333 85.333-85.333v384h85.333v-170.667h170.667l0.043-512z" />
<glyph unicode="&#xe95c;" glyph-name="file-copy" d="M700.331 917.333h-316.331c-47.061 0-85.333-38.315-85.333-85.333v-597.333c0-47.061 38.272-85.333 85.333-85.333h426.667c47.061 0 85.333 38.272 85.333 85.333v486.997l-195.669 195.669zM810.709 234.667h-426.709v597.333h256v-170.667h170.667l0.043-426.667zM213.333 746.667h-85.333v-682.667c0-47.061 38.272-85.333 85.333-85.333h512v85.333h-512v682.667z" />
<glyph unicode="&#xe95d;" glyph-name="file-hand" d="M853.333 960h-298.667c-47.061 0-85.333-38.315-85.333-85.333v-384c0-47.061 38.272-85.333 85.333-85.333h298.667c47.061 0 85.333 38.272 85.333 85.333v384c0 47.019-38.272 85.333-85.333 85.333zM554.667 490.667v384h170.667v-128h128l0.043-256h-298.709zM853.333 234.667h-323.669l12.501 12.501c12.971 12.971 16.213 32.811 8.021 49.237l-42.667 85.333c-9.472 18.944-31.531 28.117-51.669 21.376l-202.965-67.627c-6.229 15.829-21.504 27.179-39.552 27.179h-170.667c-23.552 0-42.667-19.115-42.667-42.667v-341.333c0-23.552 19.115-42.667 42.667-42.667h170.667c23.552 0 42.667 19.115 42.667 42.667h469.333c13.44 0 26.069 6.315 34.133 17.067l128 170.667c9.728 12.928 11.264 30.208 4.053 44.672-7.253 14.421-22.016 23.595-38.187 23.595zM85.333 21.333v256h85.333v-256h-85.333zM704 64h-448v182.571l191.744 63.872 12.373-24.704-63.573-63.573c-12.203-12.203-15.872-30.549-9.259-46.507s22.144-26.325 39.381-26.325h341.333l-64-85.333z" />
<glyph unicode="&#xe95e;" glyph-name="file-landscape-new-1" d="M742.997 746.667h-572.331c-47.061 0-85.333-38.315-85.333-85.333v-512c0-47.061 38.272-85.333 85.333-85.333h682.667c47.061 0 85.333 38.272 85.333 85.333v401.664l-195.669 195.669zM853.376 149.333h-682.709v512h512v-170.667h170.667l0.043-341.333z" />
<glyph unicode="&#xe95f;" glyph-name="file-new-1" d="M657.664 874.667h-401.664c-47.061 0-85.333-38.315-85.333-85.333v-682.667c0-47.061 38.272-85.333 85.333-85.333h512c47.061 0 85.333 38.272 85.333 85.333v572.331l-195.669 195.669zM768.043 106.667h-512.043v682.667h341.333v-170.667h170.667l0.043-512z" />
<glyph unicode="&#xe960;" glyph-name="file-new-2" d="M657.664 874.667h-401.664c-47.061 0-85.333-38.315-85.333-85.333v-682.667c0-47.061 38.272-85.333 85.333-85.333h512c47.061 0 85.333 38.272 85.333 85.333v572.331l-195.669 195.669zM768.043 106.667h-512.043v682.667h341.333v-170.667h170.667l0.043-512zM341.333 490.667h256v-85.333h-256v85.333zM341.333 320h341.333v-85.333h-341.333v85.333z" />
<glyph unicode="&#xe961;" glyph-name="file-notes-document" d="M298.667 405.333h426.667v-85.333h-426.667v85.333zM298.667 576h341.333v-85.333h-341.333v85.333zM298.667 234.667h426.667v-85.333h-426.667v85.333zM810.667 874.667h-85.333v42.667c0 23.552-19.115 42.667-42.667 42.667s-42.667-19.115-42.667-42.667v-42.667h-85.333v42.667c0 23.552-19.115 42.667-42.667 42.667s-42.667-19.115-42.667-42.667v-42.667h-85.333v42.667c0 23.552-19.115 42.667-42.667 42.667s-42.667-19.115-42.667-42.667v-42.667h-85.333c-47.061 0-85.333-38.229-85.333-85.333v-768c0-47.061 38.272-85.333 85.333-85.333h597.333c47.061 0 85.333 38.272 85.333 85.333v768c0 47.104-38.272 85.333-85.333 85.333zM213.333 21.333v768h85.333v-42.667c0-23.595 19.115-42.667 42.667-42.667s42.667 19.072 42.667 42.667v42.667h85.333v-42.667c0-23.595 19.115-42.667 42.667-42.667s42.667 19.072 42.667 42.667v42.667h85.333v-42.667c0-23.595 19.115-42.667 42.667-42.667s42.667 19.072 42.667 42.667v42.667h85.333l0.043-768h-597.376z" />
<glyph unicode="&#xe962;" glyph-name="file-notes-new" d="M810.667 874.667h-85.333v42.667c0 23.552-19.115 42.667-42.667 42.667s-42.667-19.115-42.667-42.667v-42.667h-85.333v42.667c0 23.552-19.115 42.667-42.667 42.667s-42.667-19.115-42.667-42.667v-42.667h-85.333v42.667c0 23.552-19.115 42.667-42.667 42.667s-42.667-19.115-42.667-42.667v-42.667h-85.333c-47.061 0-85.333-38.229-85.333-85.333v-768c0-47.061 38.272-85.333 85.333-85.333h597.333c47.061 0 85.333 38.272 85.333 85.333v768c0 47.104-38.272 85.333-85.333 85.333zM213.333 21.333v768h85.333v-42.667c0-23.595 19.115-42.667 42.667-42.667s42.667 19.072 42.667 42.667v42.667h85.333v-42.667c0-23.595 19.115-42.667 42.667-42.667s42.667 19.072 42.667 42.667v42.667h85.333v-42.667c0-23.595 19.115-42.667 42.667-42.667s42.667 19.072 42.667 42.667v42.667h85.333l0.043-768h-597.376z" />
<glyph unicode="&#xe963;" glyph-name="file-office-graph" d="M512 576v-213.333h213.333c0 117.845-95.488 213.333-213.333 213.333zM700.331 917.333h-486.997c-47.061 0-85.333-38.315-85.333-85.333v-768c0-47.061 38.272-85.333 85.333-85.333h597.333c47.061 0 85.333 38.272 85.333 85.333v657.664l-195.669 195.669zM213.333 64v768h426.667v-170.667h170.667l0.043-597.333h-597.376zM426.667 521.6c-74.411-26.453-128-96.811-128-180.267 0-106.069 85.973-192 192-192 83.499 0 153.771 53.589 180.267 128h-244.267v244.267z" />
<glyph unicode="&#xe964;" glyph-name="file-office-text" d="M298.667 533.333v-170.667h85.333v85.333h85.333v-213.333h-85.333v-85.333h256v85.333h-85.333v213.333h85.333v-85.333h85.333v170.667zM700.331 917.333h-486.997c-47.061 0-85.333-38.315-85.333-85.333v-768c0-47.061 38.272-85.333 85.333-85.333h597.333c47.061 0 85.333 38.272 85.333 85.333v657.664l-195.669 195.669zM213.333 64v768h426.667v-170.667h170.667l0.043-597.333h-597.376z" />
<glyph unicode="&#xe965;" glyph-name="files-1" d="M742.997 960h-316.331c-47.061 0-85.333-38.315-85.333-85.333v-597.333c0-47.061 38.272-85.333 85.333-85.333h426.667c47.061 0 85.333 38.272 85.333 85.333v486.997l-195.669 195.669zM853.376 277.333h-426.709v597.333h256v-170.667h170.667l0.043-426.667zM298.667 832h-85.333v-682.667c0-47.061 38.272-85.333 85.333-85.333h512v85.333h-512v682.667zM170.667 704h-85.333v-682.667c0-47.061 38.272-85.333 85.333-85.333h512v85.333h-512v682.667z" />
<glyph unicode="&#xe966;" glyph-name="files-2" d="M870.997 789.333h-717.995l-153.003-153.003v-529.664c0-47.061 38.272-85.333 85.333-85.333h853.333c47.061 0 85.333 38.272 85.333 85.333v529.664l-153.003 153.003zM469.333 106.667h-384v469.333h128v128h256v-597.333zM938.709 106.667h-384.043v597.333h256v-128h128l0.043-469.333z" />
<glyph unicode="&#xe967;" glyph-name="files-3" d="M384 960h-256c-47.061 0-85.333-38.315-85.333-85.333v-298.667c0-47.061 38.272-85.333 85.333-85.333h256c47.061 0 85.333 38.272 85.333 85.333v298.667c0 47.019-38.272 85.333-85.333 85.333zM128 576v298.667h170.667v-85.333h85.333l0.043-213.333h-256.043zM896 960h-256c-47.061 0-85.333-38.315-85.333-85.333v-298.667c0-47.061 38.272-85.333 85.333-85.333h256c47.061 0 85.333 38.272 85.333 85.333v298.667c0 47.019-38.272 85.333-85.333 85.333zM640 576v298.667h170.667v-85.333h85.333l0.043-213.333h-256.043zM384 405.333h-256c-47.061 0-85.333-38.315-85.333-85.333v-298.667c0-47.061 38.272-85.333 85.333-85.333h256c47.061 0 85.333 38.272 85.333 85.333v298.667c0 47.019-38.272 85.333-85.333 85.333zM128 21.333v298.667h170.667v-85.333h85.333l0.043-213.333h-256.043zM896 405.333h-256c-47.061 0-85.333-38.315-85.333-85.333v-298.667c0-47.061 38.272-85.333 85.333-85.333h256c47.061 0 85.333 38.272 85.333 85.333v298.667c0 47.019-38.272 85.333-85.333 85.333zM640 21.333v298.667h170.667v-85.333h85.333l0.043-213.333h-256.043z" />
<glyph unicode="&#xe968;" glyph-name="file-swap" d="M853.333 874.667v-110.336l-140.501 140.501-60.331-60.331 140.501-140.501h-110.336v-85.333h256v256zM341.333 192v85.333h-256v-256h85.333v110.336l140.501-140.501 60.331 60.331-140.501 140.501zM810.667 576h-298.667c-47.061 0-85.333-38.315-85.333-85.333v-384c0-47.061 38.272-85.333 85.333-85.333h298.667c47.061 0 85.333 38.272 85.333 85.333v384c0 47.019-38.272 85.333-85.333 85.333zM512 106.667v384h298.667l0.043-384h-298.709zM213.333 789.333h298.667v-170.667h85.333v170.667c0 47.019-38.272 85.333-85.333 85.333h-298.667c-47.061 0-85.333-38.315-85.333-85.333v-384c0-47.061 38.272-85.333 85.333-85.333h170.667v85.333h-170.667v384z" />
<glyph unicode="&#xe969;" glyph-name="file-tasks-add" d="M554.667 490.667h-85.333v-128h-128v-85.333h128v-128h85.333v128h128v85.333h-128zM810.667 746.667h-85.333v85.333h-48.725c-19.072 73.387-85.333 128-164.608 128s-145.536-54.613-164.608-128h-48.725v-85.333h-85.333c-47.061 0-85.333-38.272-85.333-85.333v-597.333c0-47.061 38.272-85.333 85.333-85.333h597.333c47.061 0 85.333 38.272 85.333 85.333v597.333c0 47.061-38.272 85.333-85.333 85.333zM512 874.667c31.531 0 59.093-17.152 73.856-42.667h-147.755c14.805 25.515 42.368 42.667 73.899 42.667zM384 746.667h256v-85.333h-256v85.333zM810.667 64h-597.333v597.333h85.333v-85.333h426.667v85.333h85.333v-597.333z" />
<glyph unicode="&#xe96a;" glyph-name="file-tasks-checklist" d="M469.333 593.664l-55.168 55.168-60.331-60.331 115.499-115.541 200.832 200.875-60.331 60.331zM469.333 294.997l-55.168 55.168-60.331-60.331 115.499-115.541 200.832 200.875-60.331 60.331zM768 874.667h-512c-47.061 0-85.333-38.272-85.333-85.333v-682.667c0-47.061 38.272-85.333 85.333-85.333h512c47.061 0 85.333 38.272 85.333 85.333v682.667c0 47.061-38.272 85.333-85.333 85.333zM256 106.667v682.667h512l0.043-682.667h-512.043z" />
<glyph unicode="&#xe96b;" glyph-name="file-tasks-close" d="M602.496 450.987l-90.496-90.496-90.496 90.496-60.331-60.331 90.496-90.496-90.496-90.496 60.331-60.331 90.496 90.496 90.496-90.496 60.331 60.331-90.496 90.496 90.496 90.496zM810.667 746.667h-85.333v85.333h-48.725c-19.072 73.387-85.333 128-164.608 128s-145.536-54.613-164.608-128h-48.725v-85.333h-85.333c-47.061 0-85.333-38.272-85.333-85.333v-597.333c0-47.061 38.272-85.333 85.333-85.333h597.333c47.061 0 85.333 38.272 85.333 85.333v597.333c0 47.061-38.272 85.333-85.333 85.333zM512 874.667c31.531 0 59.093-17.152 73.856-42.667h-147.755c14.805 25.515 42.368 42.667 73.899 42.667zM384 746.667h256v-85.333h-256v85.333zM810.667 64h-597.333v597.333h85.333v-85.333h426.667v85.333h85.333v-597.333z" />
<glyph unicode="&#xe96c;" glyph-name="file-tasks-subtract" d="M341.333 362.667h341.333v-85.333h-341.333v85.333zM810.667 746.667h-85.333v85.333h-48.725c-19.072 73.387-85.333 128-164.608 128s-145.536-54.613-164.608-128h-48.725v-85.333h-85.333c-47.061 0-85.333-38.272-85.333-85.333v-597.333c0-47.061 38.272-85.333 85.333-85.333h597.333c47.061 0 85.333 38.272 85.333 85.333v597.333c0 47.061-38.272 85.333-85.333 85.333zM512 874.667c31.531 0 59.093-17.152 73.856-42.667h-147.755c14.805 25.515 42.368 42.667 73.899 42.667zM384 746.667h256v-85.333h-256v85.333zM810.667 64h-597.333v597.333h85.333v-85.333h426.667v85.333h85.333v-597.333z" />
<glyph unicode="&#xe96d;" glyph-name="file-zipped-new" d="M768 874.667h-512c-47.061 0-85.333-38.229-85.333-85.333v-682.667c0-47.061 38.272-85.333 85.333-85.333h512c47.061 0 85.333 38.272 85.333 85.333v682.667c0 47.104-38.272 85.333-85.333 85.333zM256 106.667v682.667h256v-85.333h85.333v85.333h170.667l0.043-682.667h-512.043zM597.333 704h85.333v-85.333h-85.333v85.333zM512 618.667h85.333v-85.333h-85.333v85.333zM597.333 533.333h85.333v-85.333h-85.333v85.333zM512 448h85.333v-85.333h-85.333v85.333z" />
<glyph unicode="&#xe96e;" glyph-name="file-zipped-vice" d="M853.333 21.333v640c0 70.571-57.429 128-128 128h-341.333v42.667h42.667v85.333h-170.667v-85.333h42.667v-42.667h-213.333v-213.333h426.667v128h85.333v-469.333h-85.333v128h-426.667v-213.333h213.333v-42.667h-42.667v-85.333h170.667v85.333h-42.667v42.667h213.333v-128h-42.667v-85.333h341.333v85.333h-42.667zM426.667 661.333h-256v42.667h256v-42.667zM426.667 234.667h-256v42.667h256v-42.667zM768 21.333h-85.333v170.667h85.333v-170.667zM768 277.333h-85.333v85.333h85.333v-85.333zM768 448h-85.333v85.333h85.333v-85.333zM768 618.667h-85.333v85.333h42.667c23.509 0 42.667-19.157 42.667-42.667v-42.667z" />
<glyph unicode="&#xe96f;" glyph-name="fire-extinguisher" d="M837.717 864.981c-9.899 8.064-22.869 11.392-35.413 8.832l-213.333-42.667c-19.968-3.968-34.304-21.461-34.304-41.813h-78.379l-249.472 83.157-26.965-80.981 122.88-40.96c-90.667-51.328-152.064-148.523-152.064-259.883v-298.667h85.333v298.667c0 102.997 73.429 189.227 170.667 208.981v-44.416c-73.387-19.072-128-85.291-128-164.565v-426.667c0-23.552 19.115-42.667 42.667-42.667h256c23.552 0 42.667 19.115 42.667 42.667v426.667c0 79.275-54.613 145.493-128 164.608v48.725h42.667c0-20.352 14.336-37.845 34.304-41.813l213.333-42.667c12.459-2.517 25.515 0.725 35.413 8.832 9.899 8.064 15.616 20.181 15.616 32.981v170.667c0 12.8-5.717 24.875-15.616 32.981zM554.667 234.667h-42.667v170.667h42.667v-170.667zM554.667 490.667h-85.333c-23.552 0-42.667-19.115-42.667-42.667v-256c0-23.552 19.115-42.667 42.667-42.667h85.333v-42.667h-170.667v384c0 47.061 38.272 85.333 85.333 85.333s85.333-38.272 85.333-85.333zM768 713.387l-128 25.6v15.36l128 25.643v-66.603z" />
<glyph unicode="&#xe970;" glyph-name="fire-lighter" d="M810.676 490.686h-341.319v341.319c0 23.508-19.114 42.665-42.665 42.665h-170.66c-47.059 0-85.33-38.313-85.33-85.33v-298.654c0-47.017 38.27-85.33 85.33-85.33h127.995v-298.654c0-47.017 38.27-85.33 85.33-85.33h298.654c47.059 0 85.33 38.313 85.33 85.33v341.319c0 23.508-19.114 42.665-42.665 42.665zM768.011 405.356v-42.665h-298.654v42.665h298.654zM256.032 789.34h127.995v-298.654h-127.995v298.654zM469.356 106.702v170.66h298.654v-170.66h-298.654zM682.681 533.351c70.568 0 127.995 57.427 127.995 127.995 0 54.483-64.936 154.447-92.881 194.893-15.914 23.082-54.27 23.082-70.226 0-27.946-40.446-92.881-140.453-92.881-194.893 0-70.61 57.427-127.995 127.995-127.995zM682.681 752.905c24.575-41.428 42.324-78.589 42.665-91.559 0-23.551-19.157-42.665-42.665-42.665s-42.665 19.114-42.665 42.622c0.341 13.013 18.090 50.174 42.665 91.602z" />
<glyph unicode="&#xe971;" glyph-name="flash" d="M469.333 21.333c-4.736 0-9.515 0.768-14.123 2.432-17.109 5.973-28.544 22.101-28.544 40.235v298.667h-213.333c-16.384 0-31.36 9.429-38.443 24.192s-5.12 32.256 5.163 45.141l341.333 426.667c11.307 14.123 30.336 19.584 47.445 13.568 17.067-5.973 28.501-22.101 28.501-40.235v-298.667h213.333c16.384 0 31.36-9.429 38.443-24.192s5.12-32.299-5.163-45.141l-341.333-426.667c-8.235-10.325-20.565-16-33.28-16zM302.123 448h167.211c23.552 0 42.667-19.115 42.667-42.667v-219.733l209.877 262.4h-167.211c-23.552 0-42.667 19.115-42.667 42.667v219.691l-209.877-262.357z" />
<glyph unicode="&#xe972;" glyph-name="flash-off" d="M692.437 448h30.123l-13.355-16.725 60.715-60.715 74.752 93.44c10.24 12.843 12.245 30.379 5.163 45.141s-22.144 24.192-38.528 24.192h-204.203l85.333-85.333zM200.832 818.859l-60.331-60.331 167.467-167.424-127.275-159.104c-10.24-12.885-12.245-30.379-5.163-45.141s22.059-24.192 38.443-24.192h213.333v-298.667c0-18.133 11.435-34.261 28.544-40.235 4.608-1.664 9.387-2.432 14.123-2.432 12.715 0 25.045 5.675 33.323 16l159.275 199.125 160.597-160.597 60.331 60.331-682.667 682.667zM302.763 448l65.92 82.389 82.347-82.389h-148.267zM512.64 185.6v200.832l89.216-89.259-89.216-111.573zM475.947 664.491l36.693 45.867v-82.603l85.333-85.333v289.579c0 18.133-11.435 34.261-28.544 40.235-17.109 6.059-36.139 0.555-47.445-13.568l-106.752-133.461 60.715-60.715z" />
<glyph unicode="&#xe973;" glyph-name="folder-add" d="M554.667 533.333h-85.333v-128h-128v-85.333h128v-128h85.333v128h128v85.333h-128zM853.333 661.333h-352l-70.4 93.824c-16 21.419-41.557 34.176-68.267 34.176h-192c-47.061 0-85.333-38.315-85.333-85.333v-554.667c0-47.061 38.272-85.333 85.333-85.333h682.667c47.061 0 85.333 38.272 85.333 85.333v426.667c0 47.019-38.272 85.333-85.333 85.333zM170.667 149.333v554.667h192l70.4-93.867c16-21.376 41.557-34.133 68.267-34.133h352l0.043-426.667h-682.709z" />
<glyph unicode="&#xe974;" glyph-name="folder-check" d="M469.333 337.664l-97.835 97.835-60.331-60.331 158.165-158.165 243.499 243.499-60.331 60.331zM853.333 661.333h-352l-70.4 93.824c-16 21.419-41.557 34.176-68.267 34.176h-192c-47.061 0-85.333-38.315-85.333-85.333v-554.667c0-47.061 38.272-85.333 85.333-85.333h682.667c47.061 0 85.333 38.272 85.333 85.333v426.667c0 47.019-38.272 85.333-85.333 85.333zM170.667 149.333v554.667h192l70.4-93.867c16-21.376 41.557-34.133 68.267-34.133h352l0.043-426.667h-682.709z" />
<glyph unicode="&#xe975;" glyph-name="folder-close" d="M602.496 513.493l-90.496-90.496-90.496 90.496-60.331-60.331 90.496-90.496-90.496-90.496 60.331-60.331 90.496 90.496 90.496-90.496 60.331 60.331-90.496 90.496 90.496 90.496zM853.333 661.333h-352l-70.4 93.824c-16 21.419-41.557 34.176-68.267 34.176h-192c-47.061 0-85.333-38.315-85.333-85.333v-554.667c0-47.061 38.272-85.333 85.333-85.333h682.667c47.061 0 85.333 38.272 85.333 85.333v426.667c0 47.019-38.272 85.333-85.333 85.333zM170.667 149.333v554.667h192l70.4-93.867c16-21.376 41.557-34.133 68.267-34.133h352l0.043-426.667h-682.709z" />
<glyph unicode="&#xe976;" glyph-name="folder-subtract" d="M341.333 405.333h341.333v-85.333h-341.333v85.333zM853.333 661.333h-352l-70.4 93.824c-16 21.419-41.557 34.176-68.267 34.176h-192c-47.061 0-85.333-38.315-85.333-85.333v-554.667c0-47.061 38.272-85.333 85.333-85.333h682.667c47.061 0 85.333 38.272 85.333 85.333v426.667c0 47.019-38.272 85.333-85.333 85.333zM170.667 149.333v554.667h192l70.4-93.867c16-21.376 41.557-34.133 68.267-34.133h352l0.043-426.667h-682.709z" />
<glyph unicode="&#xe977;" glyph-name="food-chicken-drum-stick" d="M840.832 776.832c-49.323 49.323-113.067 76.501-179.499 76.501s-130.176-27.179-179.499-76.501c-109.995-109.995-158.933-245.547-136.021-349.355l-64.811-64.811h-67.669c-70.571 0-128-57.429-128-128 0-57.685 38.315-106.539 90.837-122.496 15.957-52.523 64.811-90.837 122.496-90.837 70.571 0 128 57.429 128 128v67.669l64.896 64.896c16.64-3.712 33.835-6.272 52.224-6.272 96.939 0 208 53.163 297.045 142.208 102.315 102.315 102.315 256.683 0 358.997zM409.003 320l-55.168-55.168c-8.021-7.979-12.501-18.859-12.501-30.165v-85.333c0-23.509-19.157-42.667-42.667-42.667-18.304 0-33.664 11.691-39.68 27.989l27.179 27.179-60.331 60.331-27.179-27.221c-16.256 6.059-27.989 21.419-27.989 39.723 0 23.509 19.157 42.667 42.667 42.667h85.333c11.307 0 22.187 4.48 30.165 12.501l55.168 55.168 25.003-25.003zM780.501 478.165c-109.525-109.525-256.811-152.149-323.669-85.333-65.707 65.707-27.435 210.901 85.333 323.669 33.195 33.195 75.563 51.499 119.168 51.499s85.973-18.304 119.168-51.499c69.035-69.035 69.035-169.301 0-238.336z" />
<glyph unicode="&#xe978;" glyph-name="food-double-burger" d="M913.839 436.544c15.018 21.588 24.788 46.803 24.788 75.474 0 53.331-27.732 106.577-86.652 132.602-13.354 176.078-160.548 315.379-339.997 315.379s-326.642-139.301-339.997-315.379c-58.92-26.026-86.652-79.271-86.652-132.602 0-28.585 9.728-53.715 24.703-75.304-15.317-21.375-24.703-46.675-24.703-74.024 0-32.895 12.842-62.632 33.279-85.33-20.436-22.698-33.279-52.435-33.279-85.33 0-55.55 35.796-102.438 85.33-120.102v-50.558c0-47.059 38.228-85.33 85.33-85.33h511.979c47.059 0 85.33 38.27 85.33 85.33v50.558c49.577 17.663 85.33 64.595 85.33 120.102 0 32.895-12.842 62.632-33.279 85.33 20.436 22.698 33.279 52.435 33.279 85.33 0 26.964-9.514 52.435-24.788 73.853zM853.298 362.692c0-23.508-19.114-42.665-42.665-42.665h-597.308c-23.551 0-42.665 19.157-42.665 42.665 0 6.912 1.749 13.439 4.736 19.37 25.3-12.202 53.118-19.37 80.594-19.37 32.212 0 62.675 10.197 87.847 28.756 31.828-18.858 72.36-28.756 104.145-28.756 22.271 0 43.988 4.992 63.997 14.677 20.010-9.685 41.726-14.677 63.997-14.677 31.785 0 72.317 9.898 104.145 28.756 25.172-18.559 55.678-28.756 87.847-28.756 27.476 0 55.251 7.168 80.509 19.37 3.029-5.93 4.821-12.458 4.821-19.37zM511.979 874.67c126.629 0 232.054-92.412 252.405-213.324h-504.811c20.351 120.912 125.776 213.324 252.405 213.324zM255.989 576.016h511.979c54.227 0 85.33-23.338 85.33-63.997 0-36.052-45.865-63.997-85.33-63.997-20.18 0-38.74 9.514-51.113 26.068-8.021 10.794-20.692 17.151-34.217 17.151-13.439 0-26.154-6.357-34.217-17.151-8.448-11.392-45.139-26.068-72.445-26.068-17.151 0-30.292 7.168-38.27 13.226-15.189 11.52-36.222 11.52-51.411 0-8.021-6.058-21.162-13.226-38.313-13.226-27.306 0-63.955 14.677-72.445 26.068-16.085 21.588-52.35 21.588-68.434 0-12.33-16.554-30.932-26.068-51.113-26.068-39.465 0-85.33 27.946-85.33 63.997 0 40.66 31.103 63.997 85.33 63.997zM255.989 21.372v42.665h511.979v-42.665h-511.979zM810.633 149.367h-597.308c-23.551 0-42.665 19.157-42.665 42.665s19.114 42.665 42.665 42.665h366.321l72.829-72.829c8.32-8.32 19.242-12.501 30.164-12.501s21.844 4.181 30.164 12.501l72.829 72.829h25.002c23.551 0 42.665-19.157 42.665-42.665s-19.114-42.665-42.665-42.665zM426.649 736.009c0-17.672-14.326-31.999-31.999-31.999s-31.999 14.326-31.999 31.999c0 17.672 14.326 31.999 31.999 31.999s31.999-14.326 31.999-31.999zM661.306 736.009c0-17.672-14.326-31.999-31.999-31.999s-31.999 14.326-31.999 31.999c0 17.672 14.326 31.999 31.999 31.999s31.999-14.326 31.999-31.999zM543.977 800.007c0-17.672-14.326-31.999-31.999-31.999s-31.999 14.326-31.999 31.999c0 17.672 14.326 31.999 31.999 31.999s31.999-14.326 31.999-31.999z" />
</font>
</defs>
</svg>
